ML
     
  Уважаемый Гость!
Вы можете поддержать проект и зарегистрироваться у наших партнеров - онлайн-стратегия MyLands. При регистрации в игре Вы получите код, который сможете активировать после регистрации на pirat.ca и получить 1000 дублонов.

Ваш код:
156f85568ae63e45e07ac461c96a83ba1a876b0a
 
     

Фобос. Клуб страха (Олег Асадулин) [2010 г., ужасы, триллер, DVDRip][internal release]

Ответить на тему
 
Автор
Сообщение

Пост 02-Авг-2012 08:00

[Q] 

megamastor

-Фобос. Клуб страха-- Производство: «Art Pictures»
Режиссер: Олег Асадулин
Жанр: ужасы, триллер
Год выпуска: 2010 г.
Продолжительность: 01:18:31
Российская премьера: 25 марта 2010
Дата выхода DVD: 15 апреля 2010
В ролях: Петр Федоров, Никита Быченков, Петр Томашевский, Агния Кузнецова, Алексей Воробьев, Рената Пиотровски, Татьяна Космачева, Тимофей Каратаев-Описание: Дождливый летний вечер. В строящийся в подвале бывшего бомбоубежища ночной клуб «Фобос» съезжаются молодые люди, у каждого на это есть своя причина. Ребята из разных слоев общества: кто-то учится, кто-то бездельничает, кто-то трудится на этой стройке, а кто-то прожигает папины деньги.
Поначалу встреча не предвещает ничего плохого. Однако происходит аварийное закрытие дверей бомбоубежища, и свет в помещении гаснет. Невольные узники не осознают всей опасности происшедшего — они шутят, пугают друг друга, но вскоре выясняется, что их мобильные телефоны вне зоны действия сети, а о своем намерении поехать в клуб они никому не сообщили…-Сэмпл КиноПоиск
Качество видео: DVDRip
Формат видео: AVI
Видео кодек: XviD
Аудио кодек: AC3
Видео: 720x320, 2222 Кбит/сек, 25,000 кадров/сек
Аудио: 448 Кбит/сек, 6 каналов, 48,0 КГц
Cубтитры: отсутствуют
Формат : AVI
Формат/Информация : Audio Video Interleave
Размер файла : 1,47 Гбайт
Продолжительность : 1 ч. 18 м.
Общий поток : 2680 Кбит/сек
Программа кодирования : VirtualDubMod 1.5.10.3 | www.virtualdub-fr.org || (build 2550/release)
Библиотека кодирования : VirtualDubMod build 2550/release
Видео
Идентификатор : 0
Формат : MPEG-4 Visual
Профиль формата : Advanced [email protected]
Параметр BVOP формата : 2
Параметр QPel формата : Нет
Параметр GMC формата : Без точки перехода
Параметр матрицы формата : Default (H.263)
Режим смешивания : Сжатый битовый поток
Идентификатор кодека : XVID
Идентификатор кодека/Подсказка : XviD
Продолжительность : 1 ч. 18 м.
Битрейт : 2222 Кбит/сек
Ширина : 720 пикселей
Высота : 320 пикселей
Соотношение сторон : 2,25:1
Частота кадров : 25,000 кадров/сек
Цветовое пространство : YUV
Субдискретизация насыщенности : 4:2:0
Битовая глубина : 8 бит
Тип развёртки : Прогрессивная
Метод сжатия : С потерями
Бит/(Пиксели*Кадры) : 0.386
Размер потока : 1,22 Гбайт (83%)
Библиотека кодирования : XviD 1.2.1 (UTC 2008-12-04)
Аудио
Идентификатор : 1
Формат : AC-3
Формат/Информация : Audio Coding 3
Расширение режима : CM (complete main)
Параметр Endianness формата : Big
Идентификатор кодека : 2000
Продолжительность : 1 ч. 18 м.
Вид битрейта : Постоянный
Битрейт : 448 Кбит/сек
Каналы : 6 каналов
Расположение каналов : Front: L C R, Side: L R, LFE
Частота : 48,0 КГц
Битовая глубина : 16 бит
Метод сжатия : С потерями
Размер потока : 252 Мбайт (17%)
Выравнивание : Разделение по промежуткам
Продолжительность промежутка : 40 мс. (1,00 видеокадр)
Время предзагрузки промежутка : 500 мс.
Download / Скачать

Хотите скачать бесплатно? Зарегистрируйтесь на сайте (ссылка на регистрацию). Pirat.ca - самый быстрый торрент трекер в рунете!

Как скачивать  ·   Что такое торрент  ·   Рейтинг и ограничения



Последний раз редактировалось: megamastor (2012-08-02 12:48), всего редактировалось 2 раз(а)

Пост 02-Авг-2012 09:20 (спустя 1 час 19 минут)

Топик был перенесен из форума Наше кино (Трюм) в форум Российские фильмы

erchine
 

Voland57

Корсар

Пост 02-Авг-2012 18:37 (спустя 10 часов)

[Q] 

Спасибо!
[Профиль]  [ЛС] 
Показать сообщения:    
Ответить на тему

Текущее время: Сегодня 21:58

Часовой пояс: GMT + 4



Вы не можете начинать темы
Вы не можете отвечать на сообщения
Вы не можете редактировать свои сообщения
Вы не можете удалять свои сообщения
Вы не можете голосовать в опросах
Вы не можете прикреплять файлы к сообщениям
Вы не можете скачивать файлы

▼ Вниз