ML
     
  Уважаемый Гость!
Вы можете поддержать проект и зарегистрироваться у наших партнеров - онлайн-стратегия MyLands. При регистрации в игре Вы получите код, который сможете активировать после регистрации на pirat.ca и получить 1000 дублонов.

Ваш код:
dbd0d701284cde74a1f34d06ce20b7bc75a73e75
 
     

Парень с Марса (Сергей Осипьян) [2011 г., черная комедия, сюрреализм, DVDRip][internal release]

Ответить на тему
 
Автор
Сообщение

Пост 08-Авг-2012 15:17

[Q] 

megamastor

-Парень с Марса-- Производство: «Парадиз»
Режиссер: Сергей Осипьян
Жанр: черная комедия, сюрреализм
Год выпуска: 2011 г.
Продолжительность: 01:32:58
Российская премьера: 5 мая 2011
Дата выхода DVD: 18 августа 2011
В ролях: Сергей Аброскин, Ксения Кутепова, Артем Ткаченко, Владас Багдонас, Егор Баринов, Игорь Черневич, Ангелина Миримская, Артем Смола, Игорь Яцко, Никита Емшанов-Описание: Молодой менеджер Петя Стариков, работающий на гигантской шоколадной фабрике MARZ, не подозревает, что творится за пределами охраняемой территории. Вехи его жизни до поры до времени предсказуемы: задания, поощрения, защиты проектов. Но вот на героя обрушивается шквал неприятностей, удивительных совпадений и удач. С угона машины — такой же, как у сотен сотрудников шоколадной фабрики — начинается новая жизнь Пети…-Сэмпл КиноПоиск
Качество видео: DVDRip
Формат видео: AVI
Видео кодек: XviD
Аудио кодек: AC3
Видео: 720x320, 1800 Кбит/сек, 25,000 кадров/сек
Аудио: 448 Кбит/сек, 6 каналов, 48,0 КГц
Cубтитры: отсутствуют
Формат : AVI
Формат/Информация : Audio Video Interleave
Размер файла : 1,47 Гбайт
Продолжительность : 1 ч. 32 м.
Общий поток : 2257 Кбит/сек
Программа кодирования : VirtualDubMod 1.5.10.3 | www.virtualdub-fr.org || (build 2550/release)
Библиотека кодирования : VirtualDubMod build 2550/release
Видео
Идентификатор : 0
Формат : MPEG-4 Visual
Профиль формата : Advanced [email protected]
Параметр BVOP формата : 2
Параметр QPel формата : Нет
Параметр GMC формата : Без точки перехода
Параметр матрицы формата : Default (H.263)
Режим смешивания : Сжатый битовый поток
Идентификатор кодека : XVID
Идентификатор кодека/Подсказка : XviD
Продолжительность : 1 ч. 32 м.
Битрейт : 1800 Кбит/сек
Ширина : 720 пикселей
Высота : 320 пикселей
Соотношение сторон : 2,25:1
Частота кадров : 25,000 кадров/сек
Цветовое пространство : YUV
Субдискретизация насыщенности : 4:2:0
Битовая глубина : 8 бит
Тип развёртки : Прогрессивная
Метод сжатия : С потерями
Бит/(Пиксели*Кадры) : 0.312
Размер потока : 1,17 Гбайт (80%)
Библиотека кодирования : XviD 1.2.1 (UTC 2008-12-04)
Аудио
Идентификатор : 1
Формат : AC-3
Формат/Информация : Audio Coding 3
Расширение режима : CM (complete main)
Параметр Endianness формата : Big
Идентификатор кодека : 2000
Продолжительность : 1 ч. 32 м.
Вид битрейта : Постоянный
Битрейт : 448 Кбит/сек
Каналы : 6 каналов
Расположение каналов : Front: L C R, Side: L R, LFE
Частота : 48,0 КГц
Битовая глубина : 16 бит
Метод сжатия : С потерями
Размер потока : 298 Мбайт (20%)
Выравнивание : Разделение по промежуткам
Продолжительность промежутка : 40 мс. (1,00 видеокадр)
Время предзагрузки промежутка : 500 мс.
Download / Скачать

Хотите скачать бесплатно? Зарегистрируйтесь на сайте (ссылка на регистрацию). Pirat.ca - самый быстрый торрент трекер в рунете!

Как скачивать  ·   Что такое торрент  ·   Рейтинг и ограничения

Пост 08-Авг-2012 18:51 (спустя 3 часа)

Топик был перенесен из форума Наше кино (Трюм) в форум Российские фильмы

erchine
 

megamastor ®

2827

Пост 08-Авг-2012 19:30 (спустя 4 часа)

[Q] 

Раньше когда мне было грустно и все УтоМило - я смотрел
День хомячка (Виталий Мухаметзянов) [2003 г., Комедия, DVDRip]
Теперь когда все напрягает и заставляет задуматьсЯ, смотрю - Парень с Марса az


Последний раз редактировалось: megamastor (2012-08-08 20:59), всего редактировалось 1 раз
[Профиль]  [ЛС] 

nadabibak

Гроза морей

Пост 08-Авг-2012 20:18 (спустя 47 минут)

[Q] 

То, что нынешние отечественные комедии можно назвать комедиями - спорный момент. Но жалеть 1.4 гб рейтинга - смешно, для того, чтобы в этом убедиться лишний раз.
Спасибо раздающему
[Профиль]  [ЛС] 

megamastor ®

2827

Пост 08-Авг-2012 20:43 (спустя 25 минут)

[Q] 

nadabibak, так то черная комедия... cb
[Профиль]  [ЛС] 

gerasim

Шкипер

Пост 10-Авг-2012 02:06 (спустя 1 день 5 часов)

[Q] 

[Профиль]  [ЛС] 
Показать сообщения:    
Ответить на тему

Текущее время: Сегодня 18:35

Часовой пояс: GMT + 4



Вы не можете начинать темы
Вы не можете отвечать на сообщения
Вы не можете редактировать свои сообщения
Вы не можете удалять свои сообщения
Вы не можете голосовать в опросах
Вы не можете прикреплять файлы к сообщениям
Вы не можете скачивать файлы

▼ Вниз