ML
     
  Уважаемый Гость!
Вы можете поддержать проект и зарегистрироваться у наших партнеров - онлайн-стратегия MyLands. При регистрации в игре Вы получите код, который сможете активировать после регистрации на pirat.ca и получить 1000 дублонов.

Ваш код:
bb0cb47ee786a33f751af5a500dd264c9487bfac
 
     

Любовь приходит не одна (Светлана Музыченко) [2011 г., мелодрама, DVDRip]

Ответить на тему
 
Автор
Сообщение

Пост 10-Дек-2011 04:49

[Q] 

zyyx

--Любовь приходит не одна-- Год выпуска: 2011
Производство: Россия
Жанр: мелодрама
Продолжительность: 01:31:10
Перевод: Оригинал [Лицензия]
Режиссер: Светлана Музыченко
В ролях: Наталия Антонова, Андрей Ильин, Игорь Верник, Анна Халилулина, Ольга Хохлова, Елизавета Водолазская, Валентина Грушина, Андрей Москвичев, Мария Померанцева, Ольга Матушкина
Описание: Ирина — 45-летняя женщина, муж которой ушел из семьи к молодой девушке Алене. Для Ирины это серьезный удар, ведь ей не удалось обзавестись собственными детьми. Однако ее мужу Олегу новая любовь надоедает быстро, он хочет вернуться назад. Теперь настало время расплатиться за грехи Алене. У девушки не выдерживают нервы, она выбрасывается из окна, но, к счастью, остается жива. В больнице выясняется, что она беременна. На защиту личного счастья Алены встает ее отец — Иван Сметанин. Он пытается убедить Ирину отпустить Олега. Ирина проникается искренней жалостью к Алене и… влюбляется в ее отца.
Источник/Качество: DVDRip | Сэмпл
Формат: AVI
Видео кодек: XviD
Аудио кодек: AC3
Видео: 720x400 (1.80:1), 25 fps, XviD build 50, 1688 kbps avg, 0.23 bit/pixel
Аудио: 48 kHz, AC3 Dolby Digital, 3/2 (L,C,R,l,r) + LFE ch, 448 kbps
Общее
Полное имя : F:\pirat.ca\Ljubov.prihodit.ne.odna.2011.O.DVDRip.avi
Формат : AVI
Формат/Информация : Audio Video Interleave
Размер файла : 1,37 Гбайт
Продолжительность : 1 ч. 31 м.
Общий поток : 2146 Кбит/сек
Название фильма : Ljubov.prihodit.ne.odna.2011.O.DVDRip.avi
Программа кодирования : VirtualDubMod 1.5.10.2 (build 2540/release)
Видео
Идентификатор : 0
Формат : MPEG-4 Visual
Профиль формата : Advanced [email protected]
Параметр BVOP формата : 2
Параметр QPel формата : Нет
Параметр GMC формата : Без точки перехода
Параметр матрицы формата : Выборочная
Идентификатор кодека : XVID
Идентификатор кодека/Подсказка : XviD
Продолжительность : 1 ч. 31 м.
Битрейт : 1688 Кбит/сек
Ширина : 720 пикселей
Высота : 400 пикселей
Соотношение сторон : 16:9
Частота кадров : 25,000 кадров/сек
Цветовое пространство : YUV
Субдискретизация насыщенности : 4:2:0
Битовая глубина : 8 бит
Тип развёртки : Прогрессивная
Метод сжатия : С потерями
Бит/(Пиксели*Кадры) : 0.234
Размер потока : 1,07 Гбайт (79%)
Библиотека кодирования : XviD 1.2.1 (UTC 2008-12-04)
Аудио
Идентификатор : 1
Формат : AC-3
Формат/Информация : Audio Coding 3
Расширение режима : CM (complete main)
Идентификатор кодека : 2000
Продолжительность : 1 ч. 31 м.
Вид битрейта : Постоянный
Битрейт : 448 Кбит/сек
Каналы : 6 каналов
Расположение каналов : Front: L C R, Side: L R, LFE
Частота : 48,0 КГц
Битовая глубина : 16 бит
Метод сжатия : С потерями
Размер потока : 292 Мбайт (21%)
Выравнивание : Соединение по промежуткам
Продолжительность промежутка : 40 мс. (1,00 видеокадр)
Время предзагрузки промежутка : 512 мс.


Download / Скачать

Хотите скачать бесплатно? Зарегистрируйтесь на сайте (ссылка на регистрацию). Pirat.ca - самый быстрый торрент трекер в рунете!

Как скачивать  ·   Что такое торрент  ·   Рейтинг и ограничения

Пост 10-Дек-2011 13:12 (спустя 8 часов)

Топик был перенесен из форума Наше Кино в форум Новинки (HD|DVD|BD|TV|SAT|PDTV| - Rips)

Skinwalker
 

Pesok

Гроза морей

Пост 15-Янв-2012 11:53 (спустя 1 месяц 5 дней)

[Q] 

спасибо!

_________________
[Профиль]  [ЛС] 
Показать сообщения:    
Ответить на тему

Текущее время: Сегодня 02:22

Часовой пояс: GMT + 4



Вы не можете начинать темы
Вы не можете отвечать на сообщения
Вы не можете редактировать свои сообщения
Вы не можете удалять свои сообщения
Вы не можете голосовать в опросах
Вы не можете прикреплять файлы к сообщениям
Вы не можете скачивать файлы

▼ Вниз