ML
     
  Уважаемый Гость!
Вы можете поддержать проект и зарегистрироваться у наших партнеров - онлайн-стратегия MyLands. При регистрации в игре Вы получите код, который сможете активировать после регистрации на pirat.ca и получить 1000 дублонов.

Ваш код:
2fd4e750dd89cae3a36ea360f2b345ccfeb562d3
 
     

Сильная (Игорь Копылов) [2011 г., драма, криминал, DVDRip]

Ответить на тему
 
Автор
Сообщение

Пост 17-Авг-2012 11:35

[Q] 

UA4HQW

Флибустьер

-Сильная-- Производство: Россия , Триикс Медиа
Режиссер: Игорь Копылов
Жанр: драма, криминал
Год выпуска: 2011 г.
Продолжительность: 01:32:09
Российская премьера: 30 декабря 2011
В ролях: Андрей Мерзликин, Оксана Базилевич, Дарья Мороз, Валерий Дегтярь, Сергей Кошонин, Алексей Девотченко, Роман Павлушев, Станислав Казаку, Игорь Копылов, Александр Чередник-Описание: Ирина - счастливая жена успешного бизнесмена Бориса Скобелева, ее сын учится в Лондоне, а сама она - удачливая владелица цветочной оранжереи. Но внезапно в автомобильной аварии погибает муж. Спустя несколько дней раздаётся странный телефонный звонок. Постепенно Ирина убеждается, что смерть Бориса не была случайностью.-Сэмпл КиноПоиск
Качество видео: DVDRip
Формат видео: AVI
Видео кодек: XviD
Аудио кодек: AC3
Видео: 720x384 (1.88:1), 25 fps, XviD build 50 ~1729 kbps avg, 0.25 bit/pixel
Аудио: 48 kHz, AC3 Dolby Digital, 2/0 (L,R) ch, ~384 kbps
Общее
Полное имя : Silnaja.2011.DVDRip.avi
Формат : AVI
Формат/Информация : Audio Video Interleave
Размер файла : 1,37 Гбайт
Продолжительность : 1 ч. 32 м.
Общий поток : 2124 Кбит/сек
Название фильма : Silnaja.2011.DVDRip
Жанр : Drama / Crime
Программа кодирования : VirtualDubMod 1.5.10.2 (build 2540/release)
Формат оригинала/Имя : Movie
Видео
Идентификатор : 0
Формат : MPEG-4 Visual
Профиль формата : Advanced [email protected]
Параметр BVOP формата : 2
Параметр QPel формата : Нет
Параметр GMC формата : Без точки перехода
Параметр матрицы формата : Выборочная
Идентификатор кодека : XVID
Идентификатор кодека/Подсказка : XviD
Продолжительность : 1 ч. 32 м.
Битрейт : 1730 Кбит/сек
Ширина : 720 пикс.
Высота : 384 пикс.
Соотношение сторон : 1,875
Частота кадров : 25,000 кадр/сек
Цветовое пространство : YUV
Подвыборка цветности : 4:2:0
Битовая глубина : 8 бит
Тип развёртки : Прогрессивная
Метод сжатия : С потерями
Бит/(Пиксели*Кадры) : 0.250
Размер потока : 1,11 Гбайт (81%)
Библиотека кодирования : XviD 1.2.1 (UTC 2008-12-04)
Аудио
Идентификатор : 1
Формат : AC-3
Формат/Информация : Audio Coding 3
Расширение режима : CM (complete main)
Идентификатор кодека : 2000
Продолжительность : 1 ч. 32 м.
Вид битрейта : Постоянный
Битрейт : 384 Кбит/сек
Каналы : 2 канала
Расположение каналов : Front: L R
Частота : 48,0 КГц
Битовая глубина : 16 бит
Метод сжатия : С потерями
Размер потока : 253 Мбайт (18%)
Выравнивание : Разделение по промежуткам
Продолжительность промежутка : 40 мс. (1,00 видеокадр)
Время предзагрузки промежутка : 500 ms
Download / Скачать

Хотите скачать бесплатно? Зарегистрируйтесь на сайте (ссылка на регистрацию). Pirat.ca - самый быстрый торрент трекер в рунете!

Как скачивать  ·   Что такое торрент  ·   Рейтинг и ограничения



Последний раз редактировалось: UA4HQW (2012-08-17 14:01), всего редактировалось 1 раз

Пост 17-Авг-2012 17:09 (спустя 5 часов)

Топик был перенесен из форума Наше кино (Трюм) в форум Российские фильмы

erchine
 

FeudorM

Корсар

Пост 01-Окт-2012 09:12 (спустя 1 месяц 13 дней)

[Q] 

[Профиль]  [ЛС] 
Показать сообщения:    
Ответить на тему

Текущее время: Сегодня 14:10

Часовой пояс: GMT + 4



Вы не можете начинать темы
Вы не можете отвечать на сообщения
Вы не можете редактировать свои сообщения
Вы не можете удалять свои сообщения
Вы не можете голосовать в опросах
Вы не можете прикреплять файлы к сообщениям
Вы не можете скачивать файлы

▼ Вниз