ML
     
  Уважаемый Гость!
Вы можете поддержать проект и зарегистрироваться у наших партнеров - онлайн-стратегия MyLands. При регистрации в игре Вы получите код, который сможете активировать после регистрации на pirat.ca и получить 1000 дублонов.

Ваш код:
bc31d8aef74c92e19ad67e34a8fa63c3b9b812fb
 
     

Любовь по расписанию / Поезд (Сергей Мезенцев) [2012 г., Mелодрама, IPTVRip]

Ответить на тему
 
Автор
Сообщение

Пост 19-Авг-2012 23:54

[Q] 

Dizell2102

-Любовь по расписанию / Поезд-- Производство: Россия
Режиссер: Сергей Мезенцев
Жанр: Mелодрама
Год выпуска: 2012 г.
Продолжительность: 01:29:28
В ролях: Дарья Волга, Александр Арсентьев, Илья Соколовский, Анастасия Панина, Алиса Майорова-Описание: Главная героиня фильма всегда считала себя счастливой в браке. Но однажды она узнает, что у ее мужа в другом городе есть семья.
-
http://multi-up.com/749148
Качество видео: IPTVRip
Формат видео: AVI
Видео кодек: XviD
Аудио кодек: MP3
Видео: 720x400 (1.80:1), 25 fps, XviD build 64 ~1957 kbps avg, 0.27 bit/pixel
Аудио: 48 kHz, MPEG Layer 3, 2 ch, ~192.00 kbps avg
Cубтитры: отсутствуют
Общее
Полное имя : C:\Users\Dizell\Desktop\Ljubov.po.raspisaniju.2012.XviD.IPTVRip-R.G.Piratca.avi
Формат : AVI
Формат/Информация : Audio Video Interleave
Профиль формата : OpenDML
Размер файла : 1,35 Гбайт
Продолжительность : 1 ч. 29 м.
Общий поток : 2157 Кбит/сек
Программа кодирования : XviD4PSP 6.0 / 54.14.100
Видео
Идентификатор : 0
Формат : MPEG-4 Visual
Профиль формата : Advanced [email protected]
Параметр BVOP формата : 1
Параметр QPel формата : Нет
Параметр GMC формата : Без точки перехода
Параметр матрицы формата : Default (H.263)
Идентификатор кодека : XVID
Идентификатор кодека/Подсказка : XviD
Продолжительность : 1 ч. 29 м.
Битрейт : 1950 Кбит/сек
Ширина : 720 пикселей
Высота : 400 пикселей
Соотношение сторон : 16:9
Частота кадров : 25,000 кадров/сек
Цветовое пространство : YUV
Субдискретизация насыщенности : 4:2:0
Битовая глубина : 8 бит
Тип развёртки : Прогрессивная
Метод сжатия : С потерями
Бит/(Пиксели*Кадры) : 0.271
Размер потока : 1,22 Гбайт (90%)
Библиотека кодирования : XviD 64
Аудио
Идентификатор : 1
Формат : MPEG Audio
Версия формата : Version 1
Профиль формата : Layer 3
Режим : Joint stereo
Расширение режима : MS Stereo
Идентификатор кодека : 55
Идентификатор кодека/Подсказка : MP3
Продолжительность : 1 ч. 29 м.
Вид битрейта : Постоянный
Битрейт : 192 Кбит/сек
Каналы : 2 канала
Частота : 48,0 КГц
Метод сжатия : С потерями
Размер потока : 123 Мбайт (9%)
Выравнивание : Соединение по промежуткам
Продолжительность промежутка : 24 мс. (0,60 видеокадр)
Библиотека кодирования : LAME3.99.4UUUUUI¦Ь–Ы
Download / Скачать

Хотите скачать бесплатно? Зарегистрируйтесь на сайте (ссылка на регистрацию). Pirat.ca - самый быстрый торрент трекер в рунете!

Как скачивать  ·   Что такое торрент  ·   Рейтинг и ограничения



Последний раз редактировалось: Dizell2102 (2012-08-20 18:55), всего редактировалось 7 раз(а)

Пост 20-Авг-2012 21:28 (спустя 21 час)

Топик был перенесен из форума Наше кино (Трюм) в форум Новинки (HD|DVD|BD|TV|SAT|PDTV| - Rips)

erchine
 
Показать сообщения:    
Ответить на тему

Текущее время: Сегодня 11:58

Часовой пояс: GMT + 4



Вы не можете начинать темы
Вы не можете отвечать на сообщения
Вы не можете редактировать свои сообщения
Вы не можете удалять свои сообщения
Вы не можете голосовать в опросах
Вы не можете прикреплять файлы к сообщениям
Вы не можете скачивать файлы

▼ Вниз