ML
     
  Уважаемый Гость!
Вы можете поддержать проект и зарегистрироваться у наших партнеров - онлайн-стратегия MyLands. При регистрации в игре Вы получите код, который сможете активировать после регистрации на pirat.ca и получить 1000 дублонов.

Ваш код:
69f316be79867e9bf99caee9682d20bb11964507
 
     

Афроiдиты (Александр Рогожкин) [2012 г., комедия, SATRip]

Ответить на тему
 
Автор
Сообщение

Пост 24-Авг-2012 22:45

[Q] 

Dizell2102

-Афроiдиты-- Производство: Россия, Триикс Медиа
Режиссер: Александр Рогожкин
Жанр: комедия
Год выпуска: 2012 г.
Продолжительность: 01:29:23
В ролях: Михаил Крылов, Дмитрий Шевченко, Егор Пазенко, Анна Лутцева, Юлия Кудояр, Дмитрий Кочкин, Наталья Суркова, Дмитрий Воронов, Павел Бадыров, Оксана Скакун, Вера Смолина, Маргарита Адаева, Максим Демченко-Описание: На острове Кипр - зима. Русский бизнесмен, владелец отеля на Кипре, пытается найти способ привлечь туристов на остров. Он нанимает креативного шоумена, который предлагает провести конкурс – «Афродита». Идея конкурса в том, что в том самом месте, где когда-то по преданию выходила Афродита, будут выходить девушки-конкурсантки, тем самым каждая из участниц конкурса на какое-то время становится Афродитой. Зрители должны выбрать победительницу - современную Афродиту. Для этого приглашаются конкурсантки и зрители. Далее в истории происходят различные смешные и нелепые ситуации с нашими героями. Идея конкурса оказывается интересной и есть шанс, что конкурс станет ежегодным и популярным.-Сэмпл
Качество видео: SATRip
Формат видео: AVI
Видео кодек: XviD
Аудио кодек: MP3
Видео: 720x400 (1.80:1), 25 fps, XviD build 64 ~1967 kbps avg, 0.27 bit/pixel
Аудио: 48 kHz, MPEG Layer 3, 2 ch, ~192.00 kbps avg
Cубтитры: отсутствуют
Полное имя : C:\Users\Dizell\Desktop\Afroidity.2012.XviD.IPTVRip-R.G.Piratca.avi
Формат : AVI
Формат/Информация : Audio Video Interleave
Профиль формата : OpenDML
Размер файла : 1,35 Гбайт
Продолжительность : 1 ч. 29 м.
Общий поток : 2167 Кбит/сек
Программа кодирования : XviD4PSP 6.0 / 54.14.100
Видео
Идентификатор : 0
Формат : MPEG-4 Visual
Профиль формата : Advanced [email protected]
Параметр BVOP формата : 1
Параметр QPel формата : Нет
Параметр GMC формата : Без точки перехода
Параметр матрицы формата : Default (H.263)
Идентификатор кодека : XVID
Идентификатор кодека/Подсказка : XviD
Продолжительность : 1 ч. 29 м.
Битрейт : 1960 Кбит/сек
Ширина : 720 пикселей
Высота : 400 пикселей
Соотношение сторон : 16:9
Частота кадров : 25,000 кадров/сек
Цветовое пространство : YUV
Субдискретизация насыщенности : 4:2:0
Битовая глубина : 8 бит
Тип развёртки : Прогрессивная
Метод сжатия : С потерями
Бит/(Пиксели*Кадры) : 0.272
Размер потока : 1,22 Гбайт (90%)
Библиотека кодирования : XviD 64
Аудио
Идентификатор : 1
Формат : MPEG Audio
Версия формата : Version 1
Профиль формата : Layer 3
Режим : Joint stereo
Расширение режима : MS Stereo
Идентификатор кодека : 55
Идентификатор кодека/Подсказка : MP3
Продолжительность : 1 ч. 29 м.
Вид битрейта : Постоянный
Битрейт : 192 Кбит/сек
Каналы : 2 канала
Частота : 48,0 КГц
Метод сжатия : С потерями
Размер потока : 123 Мбайт (9%)
Выравнивание : Соединение по промежуткам
Продолжительность промежутка : 24 мс. (0,60 видеокадр)
Download / Скачать

Хотите скачать бесплатно? Зарегистрируйтесь на сайте (ссылка на регистрацию). Pirat.ca - самый быстрый торрент трекер в рунете!

Как скачивать  ·   Что такое торрент  ·   Рейтинг и ограничения

Пост 24-Авг-2012 23:39 (спустя 54 минуты)

Топик был перенесен из форума Наше кино (Трюм) в форум Новинки (HD|DVD|BD|TV|SAT|PDTV| - Rips)

erchine
 

[email protected]ail.ru

Штурман

Пост 25-Авг-2012 01:07 (спустя 2 часа 22 минуты)

[Q] 

Комедии у нас db cm
[Профиль]  [ЛС] 

mrdim-CHEHOV

Флибустьер

Пост 05-Сен-2012 18:13 (спустя 11 дней)

[Q] 


_________________
Все будет не так, как мы решим. Все будет тогда, когда мы решимся.
[Профиль]  [ЛС] 

veter13

Корсар

Пост 11-Сен-2012 17:23 (спустя 5 дней)

[Q] 

[Профиль]  [ЛС] 

demanix

Штурман

Пост 23-Сен-2012 00:04 (спустя 11 дней)

[Q] 

[Профиль]  [ЛС] 

kostua005

Шкипер

Пост 23-Сен-2012 20:06 (спустя 20 часов)

[Q] 

[Профиль]  [ЛС] 

sleandr

Шкипер

Пост 24-Сен-2012 02:26 (спустя 6 часов)

[Q] 

Улыбнуло.
[Профиль]  [ЛС] 

Xonline

Шкипер

Пост 25-Сен-2012 22:28 (спустя 1 день 20 часов)

[Q] 

Забавно конечно один раз посмотреть, но почему-то старые советские комедии хочется пересматривать, а современные - нет.
[Профиль]  [ЛС] 

hohol541

Корсар

Пост 29-Дек-2012 10:47 (спустя 3 месяца 3 дня)

[Q] 

Поддерживаю.
[Профиль]  [ЛС] 
Показать сообщения:    
Ответить на тему

Текущее время: Сегодня 14:32

Часовой пояс: GMT + 4



Вы не можете начинать темы
Вы не можете отвечать на сообщения
Вы не можете редактировать свои сообщения
Вы не можете удалять свои сообщения
Вы не можете голосовать в опросах
Вы не можете прикреплять файлы к сообщениям
Вы не можете скачивать файлы

▼ Вниз