ML
     
  Уважаемый Гость!
Вы можете поддержать проект и зарегистрироваться у наших партнеров - онлайн-стратегия MyLands. При регистрации в игре Вы получите код, который сможете активировать после регистрации на pirat.ca и получить 1000 дублонов.

Ваш код:
dbd0d701284cde74a1f34d06ce20b7bc75a73e75
 
     

Соло на саксофоне (Александр Кириенко) [2012 г., драма, SATRip]

Ответить на тему
 
Автор
Сообщение

Пост 26-Авг-2012 07:14

[Q] 

Dizell2102

-Соло на саксофоне-- Производство: Россия, RWS по заказу Первого канала
Режиссер: Александр Кириенко
Жанр: драма
Год выпуска: 2012 г.
Продолжительность: 01:42:31
В ролях: Алексей Серебряков, Виталий Хаев, Константин Крюков, Елена Лядова, Евгения Брик, Мадлен Джабраилова, Тимофей Трибунцев, Владимир Наджафов-Описание: Владислав Лавров - владелец могущественной строительной империи. Ему во всем сопутствует удача – бизнес процветает, красавица жена делает головокружительную карьеру на эстраде, а любимая дочь – на телевидении. Но однажды в доме Лаврова появляется его давний друг – Саша Фролов. Он беден, смертельно болен, и все называют его Саша-Саксофон за виртуозную игру на инструменте. Этот человек за один день полностью разрушает благополучную и отлаженную жизнь Лаврова...
Успех и богатство в одночасье превращаются в прах. Свобода - в несвободу. Любовь - в ненависть. Дружба - в предательство. Всем придется заплатить по счетам.
Но, как и в юности, будет звучать соло одинокого саксофона...-Сэмпл
Качество видео: SATRip
Формат видео: AVI
Видео кодек: XviD
Аудио кодек: MP3
Видео: 720x400 (1.80:1), 25 fps, XviD build 64 ~1708 kbps avg, 0.24 bit/pixel
Аудио: 48 kHz, MPEG Layer 3, 2 ch, ~192.00 kbps avg
Cубтитры: отсутствуют
Полное имя : C:\Users\Dizell\Desktop\Solo.na.saksofone.2012.XviD.SATRip-Pirat.ca.avi
Формат : AVI
Формат/Информация : Audio Video Interleave
Профиль формата : OpenDML
Размер файла : 1,37 Гбайт
Продолжительность : 1 ч. 42 м.
Общий поток : 1907 Кбит/сек
Программа кодирования : XviD4PSP 6.0 / 54.14.100
Видео
Идентификатор : 0
Формат : MPEG-4 Visual
Профиль формата : Advanced [email protected]
Параметр BVOP формата : 1
Параметр QPel формата : Нет
Параметр GMC формата : Без точки перехода
Параметр матрицы формата : Default (H.263)
Идентификатор кодека : XVID
Идентификатор кодека/Подсказка : XviD
Продолжительность : 1 ч. 42 м.
Битрейт : 1700 Кбит/сек
Ширина : 720 пикселей
Высота : 400 пикселей
Соотношение сторон : 16:9
Частота кадров : 25,000 кадров/сек
Цветовое пространство : YUV
Субдискретизация насыщенности : 4:2:0
Битовая глубина : 8 бит
Тип развёртки : Прогрессивная
Метод сжатия : С потерями
Бит/(Пиксели*Кадры) : 0.236
Размер потока : 1,22 Гбайт (89%)
Библиотека кодирования : XviD 64
Аудио
Идентификатор : 1
Формат : MPEG Audio
Версия формата : Version 1
Профиль формата : Layer 3
Режим : Joint stereo
Идентификатор кодека : 55
Идентификатор кодека/Подсказка : MP3
Продолжительность : 1 ч. 42 м.
Вид битрейта : Постоянный
Битрейт : 192 Кбит/сек
Каналы : 2 канала
Частота : 48,0 КГц
Метод сжатия : С потерями
Размер потока : 141 Мбайт (10%)
Выравнивание : Соединение по промежуткам
Продолжительность промежутка : 24 мс. (0,60 видеокадр)
Download / Скачать

Хотите скачать бесплатно? Зарегистрируйтесь на сайте (ссылка на регистрацию). Pirat.ca - самый быстрый торрент трекер в рунете!

Как скачивать  ·   Что такое торрент  ·   Рейтинг и ограничения

maglot129

Корсар

Пост 26-Авг-2012 13:05 (спустя 5 часов)

[Q] 

поддержу .БОЧКА
[Профиль]  [ЛС] 

pum

Корсар

Пост 26-Авг-2012 18:29 (спустя 5 часов)

[Q] 

Фильм - просто супер!!! Отечественный кинематограф я только начинаю переосмысливать...
[Профиль]  [ЛС] 

alexis164

Морской Волк

Пост 11-Сен-2012 16:24 (спустя 15 дней)

[Q] 

Посмотрела фильм лишь из-за положительного отзыва товарища "pum"а. Не разочаровалась,фильм и впрямь неплохой,прекрасные актёры в главных ролях.
Спасибо трекеру!
[Профиль]  [ЛС] 

demanix

Штурман

Пост 23-Сен-2012 00:03 (спустя 11 дней)

[Q] 

[Профиль]  [ЛС] 

Ospan

Корсар

Пост 23-Сен-2012 11:25 (спустя 11 часов)

[Q] 

[Профиль]  [ЛС] 

Cap Flint

Морской Волк

194

Пост 23-Сен-2012 18:19 (спустя 6 часов)

[Q] 


_________________
[Профиль]  [ЛС] 
Показать сообщения:    
Ответить на тему

Текущее время: Сегодня 18:34

Часовой пояс: GMT + 4



Вы не можете начинать темы
Вы не можете отвечать на сообщения
Вы не можете редактировать свои сообщения
Вы не можете удалять свои сообщения
Вы не можете голосовать в опросах
Вы не можете прикреплять файлы к сообщениям
Вы не можете скачивать файлы

▼ Вниз