ML
     
  Уважаемый Гость!
Вы можете поддержать проект и зарегистрироваться у наших партнеров - онлайн-стратегия MyLands. При регистрации в игре Вы получите код, который сможете активировать после регистрации на pirat.ca и получить 1000 дублонов.

Ваш код:
1a5b0a965618b2c406d4279ec9924ee6282c60cf
 
     

Жена Штирлица (Вадим Соколовский) [2012 г., мелодрама, SATRip]

Ответить на тему
 
Автор
Сообщение

Пост 26-Авг-2012 23:45

[Q] 

Dizell2102

-Жена Штирлица-- Производство: Кинокомпания «Русское»
Режиссер: Вадим Соколовский
Жанр: мелодрама
Год выпуска: 2012 г.
Продолжительность: 01:29:34
В ролях: Анна Горшкова, Павел Делонг, Артем Фадеев, Ксения Князева, Татьяна Лютаева, Дима Хопёрский-Описание: Валентина одна воспитывает маленького сына Вовку. Видя, как мальчик тоскует по отцу, героиня сочиняет историю, что его папа герой-разведчик, который выполняет секретное задание в Южной Америке и однажды обязательно вернется домой. Каково же было удивление Валентины, когда на грани разоблачения своей лжи она встретила мужчину, будто вышедшего из сказки, которую сочинила сама…-Сэмпл КиноПоиск
Качество видео: SATRip
Формат видео: AVI
Видео кодек: XviD
Аудио кодек: MP3
Видео: 720x400 (1.80:1), 25 fps, XviD build 64 ~1986 kbps avg, 0.28 bit/pixel
Аудио: 48 kHz, MPEG Layer 3, 2 ch, ~192.00 kbps avg
Cубтитры: отсутствуют
Полное имя : C:\Users\Dizell\Desktop\ZHena.SHtirlica.2012.XviD.SATRip-Pirat.ca.avi
Формат : AVI
Формат/Информация : Audio Video Interleave
Профиль формата : OpenDML
Размер файла : 1,37 Гбайт
Продолжительность : 1 ч. 29 м.
Общий поток : 2186 Кбит/сек
Программа кодирования : XviD4PSP 6.0 / 54.14.100
Видео
Идентификатор : 0
Формат : MPEG-4 Visual
Профиль формата : Advanced [email protected]
Параметр BVOP формата : 1
Параметр QPel формата : Нет
Параметр GMC формата : Без точки перехода
Параметр матрицы формата : Default (H.263)
Идентификатор кодека : XVID
Идентификатор кодека/Подсказка : XviD
Продолжительность : 1 ч. 29 м.
Битрейт : 1979 Кбит/сек
Ширина : 720 пикселей
Высота : 400 пикселей
Соотношение сторон : 16:9
Частота кадров : 25,000 кадров/сек
Цветовое пространство : YUV
Субдискретизация насыщенности : 4:2:0
Битовая глубина : 8 бит
Тип развёртки : Прогрессивная
Метод сжатия : С потерями
Бит/(Пиксели*Кадры) : 0.275
Размер потока : 1,24 Гбайт (91%)
Библиотека кодирования : XviD 64
Аудио
Идентификатор : 1
Формат : MPEG Audio
Версия формата : Version 1
Профиль формата : Layer 3
Режим : Joint stereo
Идентификатор кодека : 55
Идентификатор кодека/Подсказка : MP3
Продолжительность : 1 ч. 29 м.
Вид битрейта : Постоянный
Битрейт : 192 Кбит/сек
Каналы : 2 канала
Частота : 48,0 КГц
Метод сжатия : С потерями
Размер потока : 123 Мбайт (9%)
Выравнивание : Соединение по промежуткам
Продолжительность промежутка : 24 мс. (0,60 видеокадр)
Библиотека кодирования : LAME3.99.4
Download / Скачать

Хотите скачать бесплатно? Зарегистрируйтесь на сайте (ссылка на регистрацию). Pirat.ca - самый быстрый торрент трекер в рунете!

Как скачивать  ·   Что такое торрент  ·   Рейтинг и ограничения

Пост 27-Авг-2012 00:19 (спустя 33 минуты)

Топик был перенесен из форума Наше кино (Трюм) в форум Новинки (HD|DVD|BD|TV|SAT|PDTV| - Rips)

genkasper
 
Показать сообщения:    
Ответить на тему

Текущее время: Сегодня 23:49

Часовой пояс: GMT + 4



Вы не можете начинать темы
Вы не можете отвечать на сообщения
Вы не можете редактировать свои сообщения
Вы не можете удалять свои сообщения
Вы не можете голосовать в опросах
Вы не можете прикреплять файлы к сообщениям
Вы не можете скачивать файлы

▼ Вниз