ML
     
  Уважаемый Гость!
Вы можете поддержать проект и зарегистрироваться у наших партнеров - онлайн-стратегия MyLands. При регистрации в игре Вы получите код, который сможете активировать после регистрации на pirat.ca и получить 1000 дублонов.

Ваш код:
2a3da67fd641d69eeebb7cb965232435a70eaa24
 
     

Кома (Андрей Либенсон) [2012 г., криминал, SATRip]

Ответить на тему
 
Автор
Сообщение

Пост 01-Сен-2012 10:32

[Q] 

UA4HQW

Флибустьер

-Кома-- Производство: Россия
Режиссер: Андрей Либенсон
Жанр: криминал
Год выпуска: 2012 г.
Продолжительность: 01:33:07
В ролях: Алексей Гуськов, Виталий Коваленко, Александра Мареева, Юрий Ицков, Константин Воробьев, Денис Синявский, Игорь Копылов, Денис Старков, Алексей Ведерников, Алексей Фокин, Олег Алмазов, Ирина Полянская, Геннадий Алимпиев-Описание: В линейном отделе ОВД царит параноидальная атмосфера: сотрудников подозревают в краже партии наркотиков, оперативники на взводе, от прямых ответов уклоняются, явно что-то недоговаривают, а давление со стороны начальства только усугубляет положение. К тому же оперативник убойного отдела Валерий Постовалов никак не может оправиться от трагедии: несколько месяцев назад в ДТП погибла его семья — жена и дочка, а друг и коллега Юрий Гросс, который вёз их в аэропорт, чудом выжил. Он долго лежал в коме, перенес несколько операций, частично потерял память, но классные врачи и дорогие лекарства сделали свое дело: мужчина пошел на поправку. Валера, тем временем, наоборот, идет ко дну — спивается. С появлением в отделе бойкой девушки-лейтенанта Татьяны Баталовой события начинают развиваться стремительно. История с исчезнувшей с места преступления партии наркотиков набирает обороты. Всем очевидно, что порошок украл кто-то из своих, но кто? Ответ на этот вопрос интересует как начальство, так и хладнокровных убийц, жаждущих вернуть наркотик…-Сэмпл
Качество видео: SATRip
Формат видео: AVI
Видео кодек: XviD
Аудио кодек: MP3
Видео: 704x384 (1.83:1), 25 fps, XviD MPEG-4 ~1543 kbps avg, 0.23 bit/pixel
Аудио: 48 kHz, MPEG Layer 3, 2 ch, ~128.00 kbps avg
Общее
Полное имя : Koma.avi
Формат : AVI
Формат/Информация : Audio Video Interleave
Размер файла : 1,09 Гбайт
Продолжительность : 1 ч. 33 м.
Общий поток : 1681 Кбит/сек
Программа кодирования : VirtualDubMod 1.5.10.2 (build 2540/release)
Библиотека кодирования : VirtualDubMod build 2540/release
Видео
Идентификатор : 0
Формат : MPEG-4 Visual
Профиль формата : Advanced [email protected]
Параметр BVOP формата : 2
Параметр QPel формата : Нет
Параметр GMC формата : Без точки перехода
Параметр матрицы формата : Default (H.263)
Режим смешивания : Сжатый битовый поток
Идентификатор кодека : XVID
Идентификатор кодека/Подсказка : XviD
Продолжительность : 1 ч. 33 м.
Битрейт : 1543 Кбит/сек
Ширина : 704 пикс.
Высота : 384 пикс.
Соотношение сторон : 16:9
Частота кадров : 25,000 кадр/сек
Цветовое пространство : YUV
Подвыборка цветности : 4:2:0
Битовая глубина : 8 бит
Тип развёртки : Прогрессивная
Метод сжатия : С потерями
Бит/(Пиксели*Кадры) : 0.228
Размер потока : 1,00 Гбайт (92%)
Библиотека кодирования : XviD 58
Аудио
Идентификатор : 1
Формат : MPEG Audio
Версия формата : Version 1
Профиль формата : Layer 3
Режим : Joint stereo
Расширение режима : MS Stereo
Идентификатор кодека : 55
Идентификатор кодека/Подсказка : MP3
Продолжительность : 1 ч. 33 м.
Вид битрейта : Постоянный
Битрейт : 128 Кбит/сек
Каналы : 2 канала
Частота : 48,0 КГц
Метод сжатия : С потерями
Размер потока : 85,3 Мбайт (8%)
Выравнивание : Соединение по промежуткам
Продолжительность промежутка : 40 мс. (1,00 видеокадр)
Время предзагрузки промежутка : 504 ms
Download / Скачать

Хотите скачать бесплатно? Зарегистрируйтесь на сайте (ссылка на регистрацию). Pirat.ca - самый быстрый торрент трекер в рунете!

Как скачивать  ·   Что такое торрент  ·   Рейтинг и ограничения

Пост 01-Сен-2012 10:42 (спустя 10 минут)

Топик был перенесен из форума Наше кино (Трюм) в форум Новинки (HD|DVD|BD|TV|SAT|PDTV| - Rips)

ara1205
 

anonymoys

Гроза морей

901

Пост 01-Сен-2012 10:50 (спустя 17 минут)

[Q] 

[Профиль]  [ЛС] 

Серегазмей

Корсар

186

Пост 01-Сен-2012 11:59 (спустя 1 час 8 минут)

[Q] 

Спасибо, глянем.

_________________
[Профиль]  [ЛС] 
Показать сообщения:    
Ответить на тему

Текущее время: Сегодня 01:15

Часовой пояс: GMT + 4



Вы не можете начинать темы
Вы не можете отвечать на сообщения
Вы не можете редактировать свои сообщения
Вы не можете удалять свои сообщения
Вы не можете голосовать в опросах
Вы не можете прикреплять файлы к сообщениям
Вы не можете скачивать файлы

▼ Вниз