ML
     
  Уважаемый Гость!
Вы можете поддержать проект и зарегистрироваться у наших партнеров - онлайн-стратегия MyLands. При регистрации в игре Вы получите код, который сможете активировать после регистрации на pirat.ca и получить 1000 дублонов.

Ваш код:
2a3da67fd641d69eeebb7cb965232435a70eaa24
 
     

Кочевник / Nomad (Сергей Бодров / Sergey Bodrov, Иван Пассер / Ivan Passer, Талгат Теменов / Talgat Temenov) [2005 г., драма, военный, история, HDRip] Dub

Ответить на тему
 
Автор
Сообщение

Пост 04-Сен-2012 12:30

[Q] 

sandman1973

Гроза морей

-Кочевник / Nomad-- Производство: Казахстан, Россия, США
Год выпуска: 2005 г.
Жанр: драма, военный, история
Продолжительность: 01:52:00
Мировая премьера: 17 июля 2005
Российская премьера: 7 сентября 2006
Перевод: Профессиональный (полное дублирование)
Режиссер: Сергей Бодров / Sergey Bodrov, Иван Пассер / Ivan Passer, Талгат Теменов / Talgat Temenov-В ролях: Куно Беккер, Джей Эрнандес, Джейсон Скотт Ли, Досхан Жолжаксынов, Аянат Есмагамбетова, Марк Дакаскос, Ашир Чокубаев, Жанас Искаков, Тунгышбай Джаманкулов, Ерик Жолжаксынов-Описание: История о казахском народе, о становлении государственного самосознания казахов еще в ХVIII веке.
В основу фильма «Кочевник» легли реальные исторические события, происходившие на казахской земле в 18 веке — освободительная война казахов против джунгарских завоевателей. Героями фильма являются реальные исторические личности: хан Абулхаир, Аблай-хан, мудрый Толе би, предводитель джунгар Голдан Церен.
Центральная фигура фильма — герой Мансур, ставший Аблай ханом, проходит все испытания подлинного народного полководца, но при этом не теряет притягательных личных черт, благодаря удачно выписанной лирической линии его любви к девушке — воину Гаухар.-
Качество видео: HDRip
Формат видео: AVI
Видео кодек: XviD
Аудио кодек: AC3
Видео: 720х304, 1492 Кбит/сек, 23,976 кадра/сек
Аудио: 384 Кбит/сек, 6 каналов, 48,0 КГц
Cубтитры: отсутствуют
Золотой глобус, 2007 год
Номинации (1):
Лучший саундтрек
Общее
Полное имя : E:\Загрузки\Nomad.The.Warrior.2005.HDRip.avi
Формат : AVI
Формат/Информация : Audio Video Interleave
Размер файла : 1,47 Гбайт
Продолжительность : 1 ч. 51 м.
Общий поток : 1885 Кбит/сек
Программа кодирования : VirtualDubMod 1.5.10.2 (build 2540/release)
Библиотека кодирования : VirtualDubMod build 2540/release
Видео
Идентификатор : 0
Формат : MPEG-4 Visual
Профиль формата : Advanced [email protected]
Параметр BVOP формата : 1
Параметр QPel формата : Нет
Параметр GMC формата : Без точки перехода
Параметр матрицы формата : Выборочная
Идентификатор кодека : XVID
Идентификатор кодека/Подсказка : XviD
Продолжительность : 1 ч. 51 м.
Битрейт : 1492 Кбит/сек
Ширина : 720 пикселей
Высота : 304 пикселя
Соотношение сторон : 2,35:1
Частота кадров : 23,976 кадра/сек
Цветовое пространство : YUV
Субдискретизация насыщенности : 4:2:0
Битовая глубина : 8 бит
Тип развёртки : Прогрессивная
Метод сжатия : С потерями
Бит/(Пиксели*Кадры) : 0.284
Размер потока : 1,16 Гбайт (79%)
Библиотека кодирования : XviD 1.2.1 (UTC 2008-12-04)
Аудио
Идентификатор : 1
Формат : AC-3
Формат/Информация : Audio Coding 3
Расширение режима : CM (complete main)
Параметр Endianness формата : Big
Идентификатор кодека : 2000
Продолжительность : 1 ч. 51 м.
Вид битрейта : Постоянный
Битрейт : 384 Кбит/сек
Каналы : 6 каналов
Расположение каналов : Front: L C R, Side: L R, LFE
Частота : 48,0 КГц
Битовая глубина : 16 бит
Метод сжатия : С потерями
Размер потока : 306 Мбайт (20%)
Выравнивание : Разделение по промежуткам
Продолжительность промежутка : 42 мс. (1,00 видеокадр)
Время предзагрузки промежутка : 500 мс.
«Каждый воин, каждый народ, каждая любовь - должны иметь свое отечество»
- Сначала роль Ораза, должен был исполнить Марк Дакаскос, но узнав, что её рассматривает Джейсон Скотт Ли, Марк уступил ему и сыграл Шарыша.
- Фильм был закончен еще в 2004 году, но продюсеры, посмотрев картину, решили инвестировать в неё дополнительные средства, потребовав от создателей доснять батальные сцены и расширить романтическую линию. Не согласившись с ними, проект покинули режиссёр Иван Пассер и оператор Юли Стейгер, а на их место пришли Сергей Бодров и Дэн Лаустсен.
- Идея «Кочевника» принадлежит Нурсултану Назарбаеву.
Download / Скачать

Хотите скачать бесплатно? Зарегистрируйтесь на сайте (ссылка на регистрацию). Pirat.ca - самый быстрый торрент трекер в рунете!

Как скачивать  ·   Что такое торрент  ·   Рейтинг и ограничения



Последний раз редактировалось: sandman1973 (2012-09-06 08:16), всего редактировалось 2 раз(а)

Пост 06-Сен-2012 16:08 (спустя 2 дня 3 часа)

Топик был перенесен из форума Зарубежное Кино (Трюм) в форум Российские фильмы

ara1205
 

WWsimf

Флибустьер

Пост 06-Сен-2012 22:41 (спустя 2 дня 10 часов)

[Q] 

[Профиль]  [ЛС] 

FeudorM

Корсар

Пост 01-Окт-2012 09:15 (спустя 24 дня)

[Q] 

[Профиль]  [ЛС] 

ALEHAN

Легенда

Пост 06-Фев-2013 16:44 (спустя 4 месяца 5 дней)

[Q] 

Очень красивый фильм! Советую посмотреть!
[Профиль]  [ЛС] 

Sergi4

Гроза морей

Пост 18-Фев-2013 13:49 (спустя 11 дней)

[Q] 

[Профиль]  [ЛС] 
Показать сообщения:    
Ответить на тему

Текущее время: Сегодня 01:17

Часовой пояс: GMT + 4



Вы не можете начинать темы
Вы не можете отвечать на сообщения
Вы не можете редактировать свои сообщения
Вы не можете удалять свои сообщения
Вы не можете голосовать в опросах
Вы не можете прикреплять файлы к сообщениям
Вы не можете скачивать файлы

▼ Вниз