ML
     
  Уважаемый Гость!
Вы можете поддержать проект и зарегистрироваться у наших партнеров - онлайн-стратегия MyLands. При регистрации в игре Вы получите код, который сможете активировать после регистрации на pirat.ca и получить 1000 дублонов.

Ваш код:
21acd5966619d49ad0b90c3305467b4646cc11a8
 
     

Петрович (Андрей Красавин) [2012 г., мелодрама, SATRip]

Ответить на тему
 
Автор
Сообщение

Пост 04-Сен-2012 17:13

[Q] 

UA4HQW

Флибустьер

-Петрович-- Производство: Россия
Режиссер: Андрей Красавин
Жанр: мелодрама
Год выпуска: 2012 г.
Продолжительность: 01:38:22
В ролях: Анна Уколова, Дмитрий Фрид, Сергей Власов, Сергей Журавель, Анастасия Боброва-Описание: Галина живет в деревне и работает бригадиром на местном тарном заводе. За крутой нрав и привычку носить мужские вещи деревенские не без некоторой опаски называют ее Петровичем. И не напрасно – Галя не дает спуску ни рабочим, ни даже представителям администрации.
Однажды в деревню приезжает художник-немец, которого на постой определяют как раз в дом Галины. И тут происходит настоящее чудо – оказывается под личиной грубоватого Петровича скрывается красивая и нежная женщина. Между хозяйкой дома и ее гостем завязывается роман. Но сумеют ли они преодолеть предрассудки и сотни сложностей, неожиданно возникших на их пути?-Сэмпл КиноПоиск
Качество видео: SATRip
Формат видео: AVI
Видео кодек: XviD
Аудио кодек: MP3
Видео: 704x400 (1.76:1), 25 fps, XviD build 64 ~1922 kbps avg, 0.27 bit/pixel
Аудио: 48 kHz, MPEG Layer 3, 2 ch, ~192.00 kbps avg
Общее
Полное имя : Петрович.avi
Формат : AVI
Формат/Информация : Audio Video Interleave
Размер файла : 1,46 Гбайт
Продолжительность : 1 ч. 38 м.
Общий поток : 2125 Кбит/сек
Программа кодирования : VirtualDubMod 1.5.10.3 | www.virtualdub-fr.org || (build 2550/release)
Библиотека кодирования : VirtualDubMod build 2550/release
Видео
Идентификатор : 0
Формат : MPEG-4 Visual
Профиль формата : Advanced [email protected]
Параметр BVOP формата : 2
Параметр QPel формата : Нет
Параметр GMC формата : Без точки перехода
Параметр матрицы формата : Default (MPEG)
Идентификатор кодека : XVID
Идентификатор кодека/Подсказка : XviD
Продолжительность : 1 ч. 38 м.
Битрейт : 1923 Кбит/сек
Ширина : 704 пикс.
Высота : 400 пикс.
Соотношение сторон : 16:9
Частота кадров : 25,000 кадр/сек
Цветовое пространство : YUV
Подвыборка цветности : 4:2:0
Битовая глубина : 8 бит
Тип развёртки : Прогрессивная
Метод сжатия : С потерями
Бит/(Пиксели*Кадры) : 0.273
Размер потока : 1,32 Гбайт (91%)
Библиотека кодирования : XviD 64
Аудио
Идентификатор : 1
Формат : MPEG Audio
Версия формата : Version 1
Профиль формата : Layer 3
Идентификатор кодека : 55
Идентификатор кодека/Подсказка : MP3
Продолжительность : 1 ч. 38 м.
Вид битрейта : Постоянный
Битрейт : 192 Кбит/сек
Каналы : 2 канала
Частота : 48,0 КГц
Метод сжатия : С потерями
Размер потока : 135 Мбайт (9%)
Выравнивание : Соединение по промежуткам
Продолжительность промежутка : 40 мс. (1,00 видеокадр)
Время предзагрузки промежутка : 504 ms
Библиотека кодирования : LAME3.98r
Настройки программы : -m s -V 4 -q 2 -lowpass 18.6 -b 192
Download / Скачать

Хотите скачать бесплатно? Зарегистрируйтесь на сайте (ссылка на регистрацию). Pirat.ca - самый быстрый торрент трекер в рунете!

Как скачивать  ·   Что такое торрент  ·   Рейтинг и ограничения

vovan200976

Флибустьер

Пост 05-Сен-2012 13:22 (спустя 20 часов)

[Q] 

Спасибо за фильм !!!! Про деревню обожаю!!!
[Профиль]  [ЛС] 

marush2

Лоцман

Пост 17-Сен-2012 15:29 (спустя 12 дней)

[Q] 

Посмотрела. Фиговенько - эдакая развесистая деревенская клюква.
Хотя релизеру, конечно, спасибо.
[Профиль]  [ЛС] 

Oksika

Флибустьер

Пост 15-Июл-2013 23:25 (спустя 9 месяцев 28 дней)

[Q] 

На безрыбье и рак рыба - это наше современное кино.
[Профиль]  [ЛС] 

alsor7

Лоцман

Пост 20-Авг-2013 22:40 (спустя 1 месяц 4 дня)

[Q] 

жопа ag
[Профиль]  [ЛС] 
Показать сообщения:    
Ответить на тему

Текущее время: Сегодня 23:21

Часовой пояс: GMT + 4



Вы не можете начинать темы
Вы не можете отвечать на сообщения
Вы не можете редактировать свои сообщения
Вы не можете удалять свои сообщения
Вы не можете голосовать в опросах
Вы не можете прикреплять файлы к сообщениям
Вы не можете скачивать файлы

▼ Вниз