ML
     
  Уважаемый Гость!
Вы можете поддержать проект и зарегистрироваться у наших партнеров - онлайн-стратегия MyLands. При регистрации в игре Вы получите код, который сможете активировать после регистрации на pirat.ca и получить 1000 дублонов.

Ваш код:
8b29d0f8cd61fe457e59e7df0aa1fab41a2b88b9
 
     

Однажды со мной (Леонид Фомин) [2012 г., Мюзикл, Драма, Семейный, SATRip]

Ответить на тему
 
Автор
Сообщение

Пост 09-Сен-2012 19:58

[Q] 

kiryandr

Легенда

-Однажды со мной-- Производство: Россия
Режиссер: Леонид Фомин
Жанр: Мюзикл, Драма, Семейный
Год выпуска: 2012 г.
Продолжительность: 01:20:11
В ролях: Юрис Лауциньш, Евгений Филичкин, Эльвира Волошина, Маша Фомина, Екатерина Бестужева, Александра Николаева, Александр Бобров-Описание: Десятилетний мальчик Коля неожиданно впервые знакомится со своим отцом. Отец и сын обретут друг друга, преодолев многие преграды, как внутри себя, так и на жизненном пути.-Сэмпл КиноПоиск
Качество видео: SATRip
Формат видео: AVI
Видео кодек: XviD
Аудио кодек: MP2
Видео: 720 x 400, 2179 Кбит/сек, 25,000 кадр/сек, 0.303
Аудио: MP2, 2.0, 256 Кбит/сек, 48,0 КГц
Cубтитры: отсутствуют
Общее
Полное имя : Однажды со мной.2012.SATRip.avi
Формат : AVI
Формат/Информация : Audio Video Interleave
Размер файла : 1,37 Гбайт
Продолжительность : 1 ч. 20 м.
Общий поток : 2445 Кбит/сек
Программа кодирования : VirtualDubMod 1.5.10.3 (build 2550/release)
Библиотека кодирования : VirtualDubMod build 2550/release
Видео
Идентификатор : 0
Формат : MPEG-4 Visual
Профиль формата : Advanced [email protected]
Параметр BVOP формата : 2
Параметр QPel формата : Нет
Параметр GMC формата : Без точки перехода
Параметр матрицы формата : Default (MPEG)
Идентификатор кодека : XVID
Идентификатор кодека/Подсказка : XviD
Продолжительность : 1 ч. 20 м.
Битрейт : 2179 Кбит/сек
Ширина : 720 пикс.
Высота : 400 пикс.
Соотношение сторон : 16:9
Частота кадров : 25,000 кадр/сек
Цветовое пространство : YUV
Подвыборка цветности : 4:2:0
Битовая глубина : 8 бит
Тип развёртки : Прогрессивная
Метод сжатия : С потерями
Бит/(Пиксели*Кадры) : 0.303
Размер потока : 1,22 Гбайт (89%)
Библиотека кодирования : XviD 1.2.1 (UTC 2008-12-04)
Аудио
Идентификатор : 1
Формат : MPEG Audio
Версия формата : Version 1
Профиль формата : Layer 2
Идентификатор кодека : 50
Продолжительность : 1 ч. 20 м.
Вид битрейта : Постоянный
Битрейт : 256 Кбит/сек
Каналы : 2 канала
Частота : 48,0 КГц
Метод сжатия : С потерями
Размер потока : 147 Мбайт (10%)
Выравнивание : Соединение по промежуткам
Продолжительность промежутка : 40 мс. (1,00 видеокадр)
Время предзагрузки промежутка : 504 ms
Download / Скачать

Хотите скачать бесплатно? Зарегистрируйтесь на сайте (ссылка на регистрацию). Pirat.ca - самый быстрый торрент трекер в рунете!

Как скачивать  ·   Что такое торрент  ·   Рейтинг и ограничения

Пост 09-Сен-2012 20:36 (спустя 38 минут)

Топик был перенесен из форума Наше кино (Трюм) в форум Новинки (HD|DVD|BD|TV|SAT|PDTV| - Rips)

erchine
 

anonymoys

Гроза морей

901

Пост 10-Сен-2012 06:38 (спустя 10 часов)

[Q] 

[Профиль]  [ЛС] 

PTteam

Морской Волк

Пост 10-Сен-2012 10:09 (спустя 3 часа)

[Q] 

[Профиль]  [ЛС] 

Spieler95

Морской Волк

168

Пост 21-Ноя-2012 23:04 (спустя 2 месяца 11 дней)

[Q] 


_________________
[Профиль]  [ЛС] 

CHARLI2236

1097

Пост 25-Июл-2013 19:15 (спустя 8 месяцев 3 дня)

[Q] 

7

_________________
[Профиль]  [ЛС] 
Показать сообщения:    
Ответить на тему

Текущее время: Сегодня 21:20

Часовой пояс: GMT + 4



Вы не можете начинать темы
Вы не можете отвечать на сообщения
Вы не можете редактировать свои сообщения
Вы не можете удалять свои сообщения
Вы не можете голосовать в опросах
Вы не можете прикреплять файлы к сообщениям
Вы не можете скачивать файлы

▼ Вниз