ML
     
  Уважаемый Гость!
Вы можете поддержать проект и зарегистрироваться у наших партнеров - онлайн-стратегия MyLands. При регистрации в игре Вы получите код, который сможете активировать после регистрации на pirat.ca и получить 1000 дублонов.

Ваш код:
062e2babcc491faeb40d496cf9a498ac3df6cdd0
 
     

Личное дело майора Баранова (Роман Просвирнин) [2012 г., комедия, криминал, IPTVRip]

Ответить на тему
 
Автор
Сообщение

Пост 10-Сен-2012 12:58

[Q] 

ara1205

-Личное дело майора Баранова-- Производство: Россия
Режиссер: Роман Просвирнин
Жанр: комедия, криминал
Год выпуска: 2012 г.
Продолжительность: 01:35:20
Российская премьера: 9 сентября 2012
В ролях: Алексей Макаров, Мария Миронова, Леонид Громов, Дмитрий Зеничев, Сергей Гусинский, Нина Есина, Андрей Селиванов, Валерий Афанасьев, Максим Юдин, Татьяна Кузнецова, Алена Криг, Михаил Богдасаров, Екатерина Берлинская, Анна Ровинская-Описание: Майор Баранов, профессионал с непростым характером, за излишнее рвение отстранен от службы и мается на мелких подработках.
Неожиданно ему предлагают поучаствовать в операции по разоблачению опасного преступника, сбежавшего из тюрьмы. И всё бы хорошо, но в деле оказывается слишком много подводных камней: майору придётся ехать в маленький городок, устроиться воспитателем в детский сад, да еще и вести расследование под руководством женщины…-Сэмпл, КиноПоиск-Качество видео: IPTVRip
Формат видео: AVI
Видео кодек: XviD
Аудио кодек: MP3
Видео: 720x400, 25 fps, XviD build 50 ~1856 kbps avg, 0.258 bit/pixel
Аудио: 48,0 kHz, MPEG Layer 3, 2 ch, 192.00 kbps avg
Cубтитры: отсутствуют-
Общее
Полное имя : C:\Users\Ромик\Pictures\Посмотреть\Личное Дело Майора Баранова\Lichnoe.delo.mayora.Baranova.2012.XviD.IPTVRip-files-x.avi
Формат : AVI
Формат/Информация : Audio Video Interleave
Размер файла : 1,37 Гбайт
Продолжительность : 1 ч. 35 м.
Общий поток : 2058 Кбит/сек
Программа кодирования : VirtualDubMod 1.5.10.3 | www.virtualdub-fr.org || (build 2550/release)
Библиотека кодирования : VirtualDubMod build 2550/release
Видео
Идентификатор : 0
Формат : MPEG-4 Visual
Профиль формата : Advanced [email protected]
Параметр BVOP формата : 1
Параметр QPel формата : Нет
Параметр GMC формата : Без точки перехода
Параметр матрицы формата : Default (H.263)
Идентификатор кодека : XVID
Идентификатор кодека/Подсказка : XviD
Продолжительность : 1 ч. 35 м.
Битрейт : 1856 Кбит/сек
Ширина : 720 пикселей
Высота : 400 пикселей
Соотношение сторон : 16:9
Частота кадров : 25,000 кадров/сек
Цветовое пространство : YUV
Субдискретизация насыщенности : 4:2:0
Битовая глубина : 8 бит
Тип развёртки : Прогрессивная
Метод сжатия : С потерями
Бит/(Пиксели*Кадры) : 0.258
Размер потока : 1,24 Гбайт (90%)
Библиотека кодирования : XviD 1.2.1 (UTC 2008-12-04)
Аудио
Идентификатор : 1
Формат : MPEG Audio
Версия формата : Version 1
Профиль формата : Layer 3
Идентификатор кодека : 55
Идентификатор кодека/Подсказка : MP3
Продолжительность : 1 ч. 35 м.
Вид битрейта : Постоянный
Битрейт : 192 Кбит/сек
Каналы : 2 канала
Частота : 48,0 КГц
Метод сжатия : С потерями
Размер потока : 131 Мбайт (9%)
Выравнивание : Соединение по промежуткам
Продолжительность промежутка : 40 мс. (1,00 видеокадр)
Время предзагрузки промежутка : 504 мс.
Библиотека кодирования : LAME3.98r
Настройки программы : -m s -V 4 -q 2 -lowpass 18.6 -b 192
-
-
-
Download / Скачать

Хотите скачать бесплатно? Зарегистрируйтесь на сайте (ссылка на регистрацию). Pirat.ca - самый быстрый торрент трекер в рунете!

Как скачивать  ·   Что такое торрент  ·   Рейтинг и ограничения

Пост 10-Сен-2012 14:53 (спустя 1 час 55 минут)

Топик был перенесен из форума Наше кино (Трюм) в форум Новинки (HD|DVD|BD|TV|SAT|PDTV| - Rips)

erchine
 

got70

Легенда

752

Пост 10-Сен-2012 22:23 (спустя 9 часов)

[Q] 

Это что?Дедсадовский полицейский по русски?

_________________
Добро непременно победит зло!Непременно...Затем поставит на колени,и зверски УБЬЁТ!
[Профиль]  [ЛС] 

ara1205 ®

69729

Пост 12-Сен-2012 19:52 (спустя 1 день 21 час)

[Q] 

Это что?Дедсадовский полицейский по русски?
Типа того!!!
[Профиль]  [ЛС] 

kinstintin

Гроза морей

Пост 12-Сен-2012 20:46 (спустя 54 минуты)

[Q] 

aa
[Профиль]  [ЛС] 

papa-rimskij123

Штурман

Пост 16-Сен-2012 20:06 (спустя 3 дня)

[Q] 

Кино коечно с большим количеством полного абсурда(менты прикрываясь легендой переезжают в глушь и берут с собой ксивы,которые находит у них дома,в кармане куртки, преступник).Дешево.Сердито.Какой то сюжетец,правда никакой.Посмотреть можно только если совсем смотреть нечего и заняться нечем.
[Профиль]  [ЛС] 

Voland57

Корсар

Пост 16-Сен-2012 20:31 (спустя 25 минут)

[Q] 

[Профиль]  [ЛС] 

Колян-Вован

Корсар

Пост 06-Окт-2012 20:33 (спустя 20 дней)

[Q] 

О, какой оригинальный сюжет в истории мирового кино!

_________________
Читайте классиков...
[Профиль]  [ЛС] 

nevercode

Лоцман

Пост 08-Окт-2012 21:46 (спустя 2 дня 1 час)

[Q] 

Шлак

_________________
http://www.varhammer.com
[Профиль]  [ЛС] 
Показать сообщения:    
Ответить на тему

Текущее время: Сегодня 17:40

Часовой пояс: GMT + 4



Вы не можете начинать темы
Вы не можете отвечать на сообщения
Вы не можете редактировать свои сообщения
Вы не можете удалять свои сообщения
Вы не можете голосовать в опросах
Вы не можете прикреплять файлы к сообщениям
Вы не можете скачивать файлы

▼ Вниз