ML
     
  Уважаемый Гость!
Вы можете поддержать проект и зарегистрироваться у наших партнеров - онлайн-стратегия MyLands. При регистрации в игре Вы получите код, который сможете активировать после регистрации на pirat.ca и получить 1000 дублонов.

Ваш код:
69f316be79867e9bf99caee9682d20bb11964507
 
     

Дружба особого назначения (Алексей Феоктистов) [2012 г., боевик, DVDRip]

Ответить на тему
 
Автор
Сообщение

Пост 17-Сен-2012 16:05

[Q] 

UA4HQW

Флибустьер

-Дружба особого назначения-- Производство: Россия , Приор Продакшн, Про100 Фильм
Режиссер: Алексей Феоктистов
Жанр: боевик
Год выпуска: 2012 г.
Продолжительность: 01:28:08
Дата выхода DVD: 11 сентября 2012
В ролях: Олег Масленников-Войтов, Дмитрий Орлов, Константин Тополага, Андрей Харыбин, Александр Андриенко, Саид Дашук-Нигматулин, Иван Мамонов, Руслан Ягудин, Олег Васильков, Юлия Подозерова-Описание: Два друга, Михаил Волков и Виктор Каминцев, служили в «горячих точках», а затем жизнь их разбросала по разным ведомствам. Один стал следователем криминальной полиции, другой возглавил спецподразделение снайперов группы «Альфа». Расследуя очередное заказное убийство крупного предпринимателя Волков понимает, что искать надо снайпера. Так он выходит на давнего друга, не зная, что тот был внедрен в криминальную среду и работал там под прикрытием. Во главе преступного синдиката стоит загадочный человек — «Паук». Узнав о ФСБ-шных «корнях» Каминцева, мафия похищает его семью — жену и маленькую дочь. Шантажируя Каминцева расправой над близкими, мафиози требует от него выполнить «заказ». Смогут ли герои победить организованную преступность? Удастся ли им вызволить жену и дочь Каминцева из рук подонков? Поймут ли они, кто скрывается за личиной «Паука»?-Сэмпл КиноПоиск
Качество видео: DVDRip
Формат видео: AVI
Видео кодек: XviD
Аудио кодек: MP3
Видео: 640x352 (1.82:1), 25 fps, XviD build 50 ~967 kbps avg, 0.17 bit/pixel
Аудио: 48 kHz, MPEG Layer 3, 2 ch, ~128.00 kbps avg
Общее
Полное имя : Дружба особого назначения.2012.DVDRip.700Mb.avi
Формат : AVI
Формат/Информация : Audio Video Interleave
Размер файла : 697 Мбайт
Продолжительность : 1 ч. 28 м.
Общий поток : 1106 Кбит/сек
Программа кодирования : VirtualDubModRus 1.5.10.2 (build 2542/release)
Библиотека кодирования : VirtualDubMod build 2542/release
Видео
Идентификатор : 0
Формат : MPEG-4 Visual
Профиль формата : Advanced [email protected]
Параметр BVOP формата : 2
Параметр QPel формата : Нет
Параметр GMC формата : Без точки перехода
Параметр матрицы формата : Выборочная
Идентификатор кодека : XVID
Идентификатор кодека/Подсказка : XviD
Продолжительность : 1 ч. 28 м.
Битрейт : 968 Кбит/сек
Ширина : 640 пикс.
Высота : 352 пикс.
Соотношение сторон : 16:9
Частота кадров : 25,000 кадр/сек
Цветовое пространство : YUV
Подвыборка цветности : 4:2:0
Битовая глубина : 8 бит
Тип развёртки : Прогрессивная
Метод сжатия : С потерями
Бит/(Пиксели*Кадры) : 0.172
Размер потока : 610 Мбайт (88%)
Библиотека кодирования : XviD 1.2.1 (UTC 2008-12-04)
Аудио
Идентификатор : 1
Формат : MPEG Audio
Версия формата : Version 1
Профиль формата : Layer 3
Идентификатор кодека : 55
Идентификатор кодека/Подсказка : MP3
Продолжительность : 1 ч. 28 м.
Вид битрейта : Постоянный
Битрейт : 128 Кбит/сек
Каналы : 2 канала
Частота : 48,0 КГц
Метод сжатия : С потерями
Размер потока : 80,7 Мбайт (12%)
Выравнивание : Соединение по промежуткам
Продолжительность промежутка : 40 мс. (1,00 видеокадр)
Время предзагрузки промежутка : 504 ms
Библиотека кодирования : LAME3.97
Настройки программы : -m s -V 4 -q 2 -lowpass 17 -b 128
Download / Скачать

Хотите скачать бесплатно? Зарегистрируйтесь на сайте (ссылка на регистрацию). Pirat.ca - самый быстрый торрент трекер в рунете!

Как скачивать  ·   Что такое торрент  ·   Рейтинг и ограничения



Последний раз редактировалось: UA4HQW (2012-09-18 22:48), всего редактировалось 2 раз(а)

got70

Легенда

752

Пост 17-Сен-2012 20:11 (спустя 4 часа)

[Q] 


_________________
Добро непременно победит зло!Непременно...Затем поставит на колени,и зверски УБЬЁТ!
[Профиль]  [ЛС] 

odyssey123

Флибустьер

Пост 17-Сен-2012 21:15 (спустя 1 час 4 минуты)

[Q] 

[Профиль]  [ЛС] 

Пост 19-Сен-2012 10:38 (спустя 1 день 13 часов)

Топик был перенесен из форума Наше кино (Трюм) в форум Новинки (HD|DVD|BD|TV|SAT|PDTV| - Rips)

erchine
 

infiniti-r

Корсар

Пост 19-Сен-2012 13:18 (спустя 1 день 16 часов)

[Q] 

[Профиль]  [ЛС] 

VMarkus

Шкипер

Пост 19-Сен-2012 14:56 (спустя 1 час 37 минут)

[Q] 

[Профиль]  [ЛС] 

Артур

Шкипер

Пост 19-Сен-2012 19:49 (спустя 4 часа)

[Q] 

[Профиль]  [ЛС] 

savatey

Корсар

Пост 19-Сен-2012 23:26 (спустя 3 часа)

[Q] 

Та еще ботва . Комментировать этот фильм не вижу смысла .

_________________
[Профиль]  [ЛС] 

fjurer

Морской Волк

Пост 20-Сен-2012 00:27 (спустя 1 час)

[Q] 

[Профиль]  [ЛС] 

yam672

Корсар

Пост 20-Сен-2012 06:15 (спустя 5 часов)

[Q] 

посмотрим,
[Профиль]  [ЛС] 

pahan9007

Морской Волк

Пост 20-Сен-2012 10:08 (спустя 3 часа)

[Q] 

[Профиль]  [ЛС] 

alexey3312

Флибустьер

398

Пост 20-Сен-2012 22:17 (спустя 12 часов)

[Q] 

Да мы все за дрючбу! "Фройндшафт уюбер алес"!!! Из (Де жавю)........

_________________
Металлисты - это самый развитой и передовой класс, и никто не может отрицать, что это и есть передовой отряд всего пролетариата. В.И. Ленин
[Профиль]  [ЛС] 

Agasfer

Шкипер

Пост 21-Сен-2012 05:04 (спустя 6 часов)

[Q] 

Под личиной Паука скрывается Паук, например;)
[Профиль]  [ЛС] 

MakAVP

Морской Волк

18

Пост 23-Сен-2012 06:30 (спустя 2 дня 1 час)

[Q] 


_________________

[Профиль]  [ЛС] 

Cap Flint

Морской Волк

194

Пост 23-Сен-2012 18:24 (спустя 11 часов)

[Q] 


_________________
[Профиль]  [ЛС] 

Voland57

Корсар

Пост 23-Сен-2012 20:28 (спустя 2 часа 3 минуты)

[Q] 

[Профиль]  [ЛС] 

sleandr

Шкипер

Пост 24-Сен-2012 02:25 (спустя 5 часов)

[Q] 

Вполне приличный фильм, посмотреть можно.
[Профиль]  [ЛС] 

anonymoys

Гроза морей

901

Пост 24-Сен-2012 07:09 (спустя 4 часа)

[Q] 

[Профиль]  [ЛС] 
Показать сообщения:    
Ответить на тему

Текущее время: Сегодня 14:33

Часовой пояс: GMT + 4



Вы не можете начинать темы
Вы не можете отвечать на сообщения
Вы не можете редактировать свои сообщения
Вы не можете удалять свои сообщения
Вы не можете голосовать в опросах
Вы не можете прикреплять файлы к сообщениям
Вы не можете скачивать файлы

▼ Вниз