ML
     
  Уважаемый Гость!
Вы можете поддержать проект и зарегистрироваться у наших партнеров - онлайн-стратегия MyLands. При регистрации в игре Вы получите код, который сможете активировать после регистрации на pirat.ca и получить 1000 дублонов.

Ваш код:
74c28610d77aaac24ba694c4128f3b9b46b04220
 
     

Механик (Игорь Копылов) [2012 г., боевик, криминал, SATRip]

Ответить на тему
 
Автор
Сообщение

Пост 17-Сен-2012 17:13

[Q] 

UA4HQW

Флибустьер

-Механик-- Производство: Россия
Режиссер: Игорь Копылов
Жанр: боевик, криминал
Год выпуска: 2012 г.
Продолжительность: 01:27:14
Российская премьера: 14 сентября 2012
В ролях: Прохор Дубравин, Татьяна Колганова, Алексей Фокин, Сергей Кошонин, Андрей Кузнецов, Наталья Бурмистрова-Описание: Его никто не видел в лицо. А кто видел - ликвидирован. Несколько лет назад он исчез. Говорят, что он погиб, но труп не был обнаружен. Он - один из самых профессиональных киллеров страны, известный под кличкой Механик. Долгое время сотрудники ФСБ ищут преступника, но поиски ни к чему не приводят. Сможет ли изменить ситуацию бывший опер Горячий, который берется за это дело?-Сэмпл КиноПоиск
Качество видео: SATRip
Формат видео: AVI
Видео кодек: XviD
Аудио кодек: MP3
Видео: 640x336 (1.90:1), 25 fps, XviD MPEG-4 ~986 kbps avg, 0.18 bit/pixel
Аудио: 48 kHz, MPEG Layer 3, 2 ch, ~128.00 kbps avg
Общее
Полное имя : Механик.2012.SATRip.avi
Формат : AVI
Формат/Информация : Audio Video Interleave
Размер файла : 701 Мбайт
Продолжительность : 1 ч. 27 м.
Общий поток : 1124 Кбит/сек
Программа кодирования : VirtualDubMod 1.5.10.3 | www.virtualdub-fr.org || (build 2550/release)
Библиотека кодирования : VirtualDub build 34753/release
Видео
Идентификатор : 0
Формат : MPEG-4 Visual
Профиль формата : Advanced [email protected]
Параметр BVOP формата : 2
Параметр QPel формата : Нет
Параметр GMC формата : Без точки перехода
Параметр матрицы формата : Default (H.263)
Режим смешивания : Сжатый битовый поток
Идентификатор кодека : XVID
Идентификатор кодека/Подсказка : XviD
Продолжительность : 1 ч. 27 м.
Битрейт : 986 Кбит/сек
Ширина : 640 пикс.
Высота : 336 пикс.
Соотношение сторон : 1,905
Частота кадров : 25,000 кадр/сек
Цветовое пространство : YUV
Подвыборка цветности : 4:2:0
Битовая глубина : 8 бит
Тип развёртки : Прогрессивная
Метод сжатия : С потерями
Бит/(Пиксели*Кадры) : 0.183
Размер потока : 615 Мбайт (88%)
Библиотека кодирования : XviD 64
Аудио
Идентификатор : 1
Формат : MPEG Audio
Версия формата : Version 1
Профиль формата : Layer 3
Режим : Joint stereo
Расширение режима : MS Stereo
Идентификатор кодека : 55
Идентификатор кодека/Подсказка : MP3
Продолжительность : 1 ч. 27 м.
Вид битрейта : Постоянный
Битрейт : 128 Кбит/сек
Каналы : 2 канала
Частота : 48,0 КГц
Метод сжатия : С потерями
Размер потока : 79,9 Мбайт (11%)
Выравнивание : Разделение по промежуткам
Продолжительность промежутка : 40 мс. (1,00 видеокадр)
Время предзагрузки промежутка : 500 ms
Библиотека кодирования : LAME3.98.2
Download / Скачать

Хотите скачать бесплатно? Зарегистрируйтесь на сайте (ссылка на регистрацию). Pirat.ca - самый быстрый торрент трекер в рунете!

Как скачивать  ·   Что такое торрент  ·   Рейтинг и ограничения

got70

Легенда

752

Пост 17-Сен-2012 20:07 (спустя 2 часа 54 минуты)

[Q] 


_________________
Добро непременно победит зло!Непременно...Затем поставит на колени,и зверски УБЬЁТ!
[Профиль]  [ЛС] 

baltimor337

Корсар

Пост 17-Сен-2012 20:16 (спустя 8 минут)

[Q] 

[Профиль]  [ЛС] 

Пост 19-Сен-2012 10:36 (спустя 1 день 14 часов)

Топик был перенесен из форума Наше кино (Трюм) в форум Новинки (HD|DVD|BD|TV|SAT|PDTV| - Rips)

erchine
 

vasi

Корсар

Пост 19-Сен-2012 11:46 (спустя 1 день 15 часов)

[Q] 

[Профиль]  [ЛС] 

pahan9007

Морской Волк

Пост 19-Сен-2012 18:55 (спустя 7 часов)

[Q] 

[Профиль]  [ЛС] 

glamour03

Корсар

70

Пост 19-Сен-2012 19:03 (спустя 8 минут)

[Q] 

Кто смотрел, как кино?

_________________
[Профиль]  [ЛС] 

savatey

Корсар

Пост 19-Сен-2012 19:31 (спустя 28 минут)

[Q] 

Какой такой Горячий ? Сценарий по книжонкам девяностых ? Кто смотрел ?

_________________
[Профиль]  [ЛС] 

erchine

44808

Пост 19-Сен-2012 20:12 (спустя 41 минута)

[Q] 

Я смотрела. Не правдоподобно конечно. Если воспринимать как пародию на американские боевики, то вполне не плохо.
[Профиль]  [ЛС] 

Aleks44

Гроза морей

Пост 20-Сен-2012 23:24 (спустя 1 день 3 часа)

[Q] 

Фантастика, один супер киллер которого не могут поймать, в наше время кого угодно могут поймать нужно только желание и средства и помощь верхов
[Профиль]  [ЛС] 

Михалы4

Лоцман

Пост 21-Сен-2012 19:45 (спустя 20 часов)

[Q] 

Фильм смотреть можно. Что-то типа "Домового". Интересно закручен сюжет.
Мне понравилось.
[Профиль]  [ЛС] 
Показать сообщения:    
Ответить на тему

Текущее время: Сегодня 09:54

Часовой пояс: GMT + 4



Вы не можете начинать темы
Вы не можете отвечать на сообщения
Вы не можете редактировать свои сообщения
Вы не можете удалять свои сообщения
Вы не можете голосовать в опросах
Вы не можете прикреплять файлы к сообщениям
Вы не можете скачивать файлы

▼ Вниз