ML
     
  Уважаемый Гость!
Вы можете поддержать проект и зарегистрироваться у наших партнеров - онлайн-стратегия MyLands. При регистрации в игре Вы получите код, который сможете активировать после регистрации на pirat.ca и получить 1000 дублонов.

Ваш код:
dbd0d701284cde74a1f34d06ce20b7bc75a73e75
 
     

Маша (Алексей Праздников) [2012 г., мелодрама, DVDRip]

Ответить на тему
 
Автор
Сообщение

Пост 21-Сен-2012 15:50

[Q] 

UA4HQW

Флибустьер

-Маша-- Производство: Россия , Грин-фильм
Режиссер: Алексей Праздников
Жанр: мелодрама
Год выпуска: 2012 г.
Продолжительность: 01:29:20
Дата выхода DVD: 18 сентября 2012
В ролях: Ольга Ломоносова, Евгений Пронин, Екатерина Васильева, Борис Смолкин, Алексей Мышинский-Описание: Что такое женское счастье?.. Для Маши — сын и работа. Именно им она и посвятила свою жизнь, забыв про все остальное. Маша — старший научный сотрудник института Биологического Синтеза, кандидат химико-биологических наук и, одновременно, репетитор. Ее сын в выпускном классе и активно готовится к ЕГЭ, что приносит Маше лишь дополнительных переживаний: если сын провалит экзамен, то его заберут в армию. Вот в такой рутинной жизни Маши внезапно появляется Алексей… Жизнь Маши наполняется давно забытыми эмоциями и сердечными переживаниями. Но сын Миша воспринимает маминого возлюбленного «в штыки». Попытка Алексея объясниться с подростком приводит к безобразной драке, а позже Миша и вовсе пускается «во все тяжкие». Маша встает перед выбором: быть счастливой с Алексеем и пойти на охлаждение отношений с сыном, или посвятить еще несколько лет воспитанию подростка, забыв про свою любовь… Тонкое, атмосферное кино, отсылающее зрителя к «Осеннему марафону», расскажет о том, как важно не побояться вовремя прервать бег по замкнутому кругу и изменить жизненные приоритеты.-Сэмпл КиноПоиск
Качество видео: DVDRip
Формат видео: AVI
Видео кодек: XviD
Аудио кодек: MP3
Видео: 640x352 (1.82:1), 25 fps, XviD build 50 ~952 kbps avg, 0.17 bit/pixel
Аудио: 48 kHz, MPEG Layer 3, 2 ch, ~128.00 kbps avg
Общее
Полное имя : Masha.2012.DVDRip.avi
Формат : AVI
Формат/Информация : Audio Video Interleave
Размер файла : 696 Мбайт
Продолжительность : 1 ч. 29 м.
Общий поток : 1090 Кбит/сек
Программа кодирования : VirtualDubModRus 1.5.10.2 (build 2542/release)
Библиотека кодирования : VirtualDubMod build 2542/release
Видео
Идентификатор : 0
Формат : MPEG-4 Visual
Профиль формата : Advanced [email protected]
Параметр BVOP формата : 2
Параметр QPel формата : Нет
Параметр GMC формата : Без точки перехода
Параметр матрицы формата : Выборочная
Идентификатор кодека : XVID
Идентификатор кодека/Подсказка : XviD
Продолжительность : 1 ч. 29 м.
Битрейт : 952 Кбит/сек
Ширина : 640 пикс.
Высота : 352 пикс.
Соотношение сторон : 16:9
Частота кадров : 25,000 кадр/сек
Цветовое пространство : YUV
Подвыборка цветности : 4:2:0
Битовая глубина : 8 бит
Тип развёртки : Прогрессивная
Метод сжатия : С потерями
Бит/(Пиксели*Кадры) : 0.169
Размер потока : 608 Мбайт (87%)
Библиотека кодирования : XviD 1.2.1 (UTC 2008-12-04)
Аудио
Идентификатор : 1
Формат : MPEG Audio
Версия формата : Version 1
Профиль формата : Layer 3
Идентификатор кодека : 55
Идентификатор кодека/Подсказка : MP3
Продолжительность : 1 ч. 29 м.
Вид битрейта : Постоянный
Битрейт : 128 Кбит/сек
Каналы : 2 канала
Частота : 48,0 КГц
Метод сжатия : С потерями
Размер потока : 81,8 Мбайт (12%)
Выравнивание : Соединение по промежуткам
Продолжительность промежутка : 40 мс. (1,00 видеокадр)
Время предзагрузки промежутка : 504 ms
Библиотека кодирования : LAME3.97
Настройки программы : -m s -V 4 -q 2 -lowpass 17 -b 128
Download / Скачать

Хотите скачать бесплатно? Зарегистрируйтесь на сайте (ссылка на регистрацию). Pirat.ca - самый быстрый торрент трекер в рунете!

Как скачивать  ·   Что такое торрент  ·   Рейтинг и ограничения

Пост 21-Сен-2012 16:18 (спустя 27 минут)

Топик был перенесен из форума Наше кино (Трюм) в форум Новинки (HD|DVD|BD|TV|SAT|PDTV| - Rips)

erchine
 
Показать сообщения:    
Ответить на тему

Текущее время: Сегодня 18:31

Часовой пояс: GMT + 4



Вы не можете начинать темы
Вы не можете отвечать на сообщения
Вы не можете редактировать свои сообщения
Вы не можете удалять свои сообщения
Вы не можете голосовать в опросах
Вы не можете прикреплять файлы к сообщениям
Вы не можете скачивать файлы

▼ Вниз