ML
     
  Уважаемый Гость!
Вы можете поддержать проект и зарегистрироваться у наших партнеров - онлайн-стратегия MyLands. При регистрации в игре Вы получите код, который сможете активировать после регистрации на pirat.ca и получить 1000 дублонов.

Ваш код:
74c28610d77aaac24ba694c4128f3b9b46b04220
 
     

На игре (Павел Санаев) [2009 г., боевик ,приключения, DVDRip]

Ответить на тему
 
Автор
Сообщение

Пост 12-Дек-2011 09:57

[Q] 

kstzxxx

Корсар

На игре Год выпуска: 2009
Жанр: боевик ,приключения
Продолжительность: 01:30:20
Выпущено: Россия, Karoprokat
Режиссер: Павел Санаев
Озвучивание: Оригинал
В ролях: Алексей Бардуков, Агния Дитковските, Сергей Чирков, Павел Прилучный, Евгений Харланов, Виктор Вержбицкий, Игорь Скляр, Марина Петренко, Тихон Жизневский, Нодар Сирадзе
Описание: После оглушительной победы на турнире по киберспорту команде геймеров вручают диски с только что разработанной игрой. Запустив игру, каждый из них подвергается воздействию, переводящему их игровые способности в реальные. Теперь и в жизни они лучшие бойцы, стрелки и гонщики. Данное событие не остается незамеченным. Властные структуры путем шантажа, обмана и подкупа предлагают геймерам «работу». Но как только обман раскрывается, становится понятно, что они не герои, спасающие страну, а банальные наемные убийцы. Встает вопрос: как быть дальше? К тому же дисков у производителя еще много, и появление таких же, как они, профи — это вопрос времени. Теперь перед геймерами стоит задача найти тираж и… либо уничтожить его, либо, создав и возглавив целую армию геймеров, диктовать свою волю… Команда разделилась. Каждый идет к своей цели.

IMDB /КиноПоиск
Источник/Качество: DVDRip
Формат: AVI
Видео кодек: XviD
Аудио кодек: AC3
Видео: XviD 1706 kb/s, 720x304 25.000 fps 0.312 b/px
Аудио:48.0 KHz AC3, 448 kb/s (6 ch)
D:\Новая папка (4)\Na.igre.2009.{Piratca}\Na.igre.2009.O.DVDRip.(Pirat.ca).avi
General
Complete name : D:\Новая папка (4)\Na.igre.2009.{Piratca}\Na.igre.2009.O.DVDRip.(Pirat.ca).avi
Format : AVI
Format/Info : Audio Video Interleave
File size : 1.37 GiB
Duration : 1h 30mn
Overall bit rate : 2 165 Kbps
Movie name : Na igre (2009)
Writing application : VirtualDubMod 1.5.10.2 (build 2540/release)
Video #0
ID : 0
Format : MPEG-4 Visual
Format profile : Advanced [email protected]
Format settings, BVOP : Yes
Format settings, QPel : No
Format settings, GMC : No warppoints
Format settings, Matrix : Custom
Codec ID : XVID
Codec ID/Hint : XviD
Duration : 1h 30mn
Bit rate : 1 707 Kbps
Width : 720 pixels
Height : 304 pixels
Display aspect ratio : 2.35:1
Frame rate : 25.000 fps
Color space : YUV
Chroma subsampling : 4:2:0
Bit depth : 8 bits
Scan type : Progressive
Compression mode : Lossy
Bits/(Pixel*Frame) : 0.312
Stream size : 1.08 GiB (79%)
Writing library : XviD 1.2.1 (UTC 2008-12-04)
Audio #1
ID : 1
Format : AC-3
Format/Info : Audio Coding 3
Mode extension : CM (complete main)
Codec ID : 2000
Duration : 1h 30mn
Bit rate mode : Constant
Bit rate : 448 Kbps
Channel(s) : 6 channels
Channel positions : Front: L C R, Side: L R, LFE
Sampling rate : 48.0 KHz
Bit depth : 16 bits
Compression mode : Lossy
Stream size : 289 MiB (21%)
Alignment : Aligned on interleaves
Interleave, duration : 40 ms (1.00 video frame)
Interleave, preload duration : 512 ms



Download / Скачать

Хотите скачать бесплатно? Зарегистрируйтесь на сайте (ссылка на регистрацию). Pirat.ca - самый быстрый торрент трекер в рунете!

Как скачивать  ·   Что такое торрент  ·   Рейтинг и ограничения



Последний раз редактировалось: kstzxxx (2011-12-12 11:13), всего редактировалось 1 раз

Пост 12-Дек-2011 11:21 (спустя 1 час 23 минуты)

Топик был перенесен из форума Наше Кино в форум Российские фильмы

Skinwalker
 

vampytch

Корсар

417

Пост 01-Фев-2012 16:58 (спустя 1 месяц 20 дней)

[Q] 


_________________
Niemand außer uns!
[Профиль]  [ЛС] 

GalanT

Шкипер

Пост 02-Мар-2012 11:06 (спустя 1 месяц)

[Q] 

посмотрим что за кинцо. Автору
[Профиль]  [ЛС] 

Vitaliy197474

Морской Волк

Пост 13-Мар-2012 21:55 (спустя 11 дней)

[Q] 

[Профиль]  [ЛС] 

Тимофей

Штурман

Пост 20-Мар-2012 15:12 (спустя 6 дней)

[Q] 

Спасибо )
[Профиль]  [ЛС] 

A.Net

Корсар

Пост 22-Мар-2012 20:26 (спустя 2 дня 5 часов)

[Q] 

[Профиль]  [ЛС] 

Тимофей

Штурман

Пост 01-Апр-2012 20:08 (спустя 9 дней)

[Q] 

Спасибо)
[Профиль]  [ЛС] 

Нэйтон

Флибустьер

Пост 16-Июл-2013 20:40 (спустя 1 год 3 месяца)

[Q] 

Классный фмльм ... ay
[Профиль]  [ЛС] 
Показать сообщения:    
Ответить на тему

Текущее время: Сегодня 09:57

Часовой пояс: GMT + 4



Вы не можете начинать темы
Вы не можете отвечать на сообщения
Вы не можете редактировать свои сообщения
Вы не можете удалять свои сообщения
Вы не можете голосовать в опросах
Вы не можете прикреплять файлы к сообщениям
Вы не можете скачивать файлы

▼ Вниз