ML
     
  Уважаемый Гость!
Вы можете поддержать проект и зарегистрироваться у наших партнеров - онлайн-стратегия MyLands. При регистрации в игре Вы получите код, который сможете активировать после регистрации на pirat.ca и получить 1000 дублонов.

Ваш код:
dbd0d701284cde74a1f34d06ce20b7bc75a73e75
 
     

На игре 2. Новый уровень (Павел Санаев) [2010 г., Боевик ,приключения, DVDRip]

Ответить на тему
 
Автор
Сообщение

Пост 12-Дек-2011 10:22

[Q] 

kstzxxx

Корсар

На игре 2. Новый уровень Год выпуска: 2010
Жанр: Боевик ,приключения
Продолжительность: 01:25:50
Выпущено: Россия, Karoprokat
Режиссер: Павел Санаев
Озвучивание: Оригинал
В ролях: Алексей Бардуков, Агния Дитковските, Марина Петренко, Сергей Чирков, Павел Прилучный, Евгений Харланов, Виктор Вержбицкий, Александр Лыков, Игорь Скляр, Нодар Сирадзе
Описание: После проведения спецоперации, во время которой был убит один из членов команды, у геймеров начинается другая жизнь. Каждый из них понимает — они работают на крупный преступный синдикат. За дисками теперь охотятся все — и властные структуры, и геймеры. Задача — не допустить, чтобы такой материал попал за границу. Часть команды решает забрать их себе и сформировать собственную подконтрольную армию. Вампир и Рита пытаются им помешать. Теперь в команде — каждый сам за себя.

IMDb/КиноПоиск
Источник/Качество: DVDRip
Формат: AVI
Видео кодек: XviD
Аудио кодек: AC3
Видео: XviD, 1970 Кбит/с, 704x304, 25.000 fps 0.368 b/px
Аудио:48.0 KHz, АС3, 6 ch, 448 Кбит/с
D:\Новая папка (5)\Na.igre.2.Novyj.uroven.2010.{Pirat.ca}\Na.igre.2.Novyj.uroven.2010.XviD.DVDRip.(PIrat.ca).avi
General
Complete name : D:\Новая папка (5)\Na.igre.2.Novyj.uroven.2010.{Pirat.ca}\Na.igre.2.Novyj.uroven.2010.XviD.DVDRip.(PIrat.ca).avi
Format : AVI
Format/Info : Audio Video Interleave
File size : 1.46 GiB
Duration : 1h 25mn
Overall bit rate : 2 429 Kbps
Writing application : Lavf52.33.0
Original source form/Name : Na_igre_2
Video #0
ID : 0
Format : MPEG-4 Visual
Format profile : [email protected]
Format settings, BVOP : No
Format settings, QPel : No
Format settings, GMC : No warppoints
Format settings, Matrix : Default (H.263)
Codec ID : XVID
Codec ID/Hint : XviD
Duration : 1h 25mn
Bit rate : 1 970 Kbps
Width : 704 pixels
Height : 304 pixels
Display aspect ratio : 2.35:1
Frame rate : 25.000 fps
Color space : YUV
Chroma subsampling : 4:2:0
Bit depth : 8 bits
Scan type : Progressive
Compression mode : Lossy
Bits/(Pixel*Frame) : 0.368
Stream size : 1.18 GiB (81%)
Writing library : XviD 1.2.1 (UTC 2008-12-04)
Audio #1
ID : 1
Format : AC-3
Format/Info : Audio Coding 3
Mode extension : CM (complete main)
Codec ID : 2000
Duration : 1h 25mn
Bit rate mode : Constant
Bit rate : 448 Kbps
Channel(s) : 6 channels
Channel positions : Front: L C R, Side: L R, LFE
Sampling rate : 48.0 KHz
Bit depth : 16 bits
Compression mode : Lossy
Stream size : 275 MiB (18%)
Alignment : Aligned on interleaves
Interleave, duration : 32 ms (0.80 video frame)



Download / Скачать

Хотите скачать бесплатно? Зарегистрируйтесь на сайте (ссылка на регистрацию). Pirat.ca - самый быстрый торрент трекер в рунете!

Как скачивать  ·   Что такое торрент  ·   Рейтинг и ограничения



Последний раз редактировалось: kstzxxx (2011-12-12 11:09), всего редактировалось 1 раз

Пост 12-Дек-2011 11:20 (спустя 58 минут)

Топик был перенесен из форума Наше Кино в форум Российские фильмы

Skinwalker
 

Luzhok

Легенда

Пост 12-Дек-2011 17:35 (спустя 7 часов)

[Q] 

ну и на фига делать папку в торренте для одного файла?
[Профиль]  [ЛС] 

GalanT

Шкипер

Пост 02-Мар-2012 11:17 (спустя 2 месяца 20 дней)

[Q] 

[Профиль]  [ЛС] 

Krukov_Aleksey

Корсар

Пост 06-Мар-2012 23:49 (спустя 4 дня)

[Q] 

Огромное спасибо. Посмотрел сейчас рекламу по телеку а фильм уже тут. Прикольно. Молодцы
[Профиль]  [ЛС] 

alexkalchenko

Корсар

40

Пост 11-Мар-2012 12:13 (спустя 4 дня)

[Q] 

[Профиль]  [ЛС] 

Тимофей

Штурман

Пост 20-Мар-2012 15:13 (спустя 9 дней)

[Q] 

Неплох фильм ) Спасибо) bk
[Профиль]  [ЛС] 

YSPAN

Морской Волк

Пост 20-Мар-2012 18:54 (спустя 3 часа)

[Q] 

bd
[Профиль]  [ЛС] 

Odessa222

Штурман

Пост 22-Мар-2012 09:23 (спустя 1 день 14 часов)

[Q] 

А первый скрин из предыдущего фильма? Ведь хлопца убили?
[Профиль]  [ЛС] 

A.Net

Корсар

Пост 22-Мар-2012 20:26 (спустя 11 часов)

[Q] 

[Профиль]  [ЛС] 

Тимофей

Штурман

Пост 01-Апр-2012 20:09 (спустя 9 дней)

[Q] 

спасибо)
[Профиль]  [ЛС] 

krasavchik34

Пост 19-Авг-2012 13:48 (спустя 4 месяца 17 дней)

[Q] 

благодарю раздатчика.
[Профиль]  [ЛС] 

antis1962

Корсар

Пост 23-Авг-2012 23:42 (спустя 4 дня)

[Q] 

Первый интересней был...
[Профиль]  [ЛС] 
Показать сообщения:    
Ответить на тему

Текущее время: Сегодня 18:31

Часовой пояс: GMT + 4



Вы не можете начинать темы
Вы не можете отвечать на сообщения
Вы не можете редактировать свои сообщения
Вы не можете удалять свои сообщения
Вы не можете голосовать в опросах
Вы не можете прикреплять файлы к сообщениям
Вы не можете скачивать файлы

▼ Вниз