ML
     
  Уважаемый Гость!
Вы можете поддержать проект и зарегистрироваться у наших партнеров - онлайн-стратегия MyLands. При регистрации в игре Вы получите код, который сможете активировать после регистрации на pirat.ca и получить 1000 дублонов.

Ваш код:
4855957e17f50c5c1236a0f8c4492b2b0bba00a0
 
     

Не скажу (Игорь Копылов) [2010 г., драма, DVDRip]

Ответить на тему
 
Автор
Сообщение

Пост 28-Сен-2012 08:31

[Q] 

sandman1973

Гроза морей

-Не скажу-- Производство: Россия
Режиссер: Игорь Копылов
Жанр: драма
Год выпуска: 2010 г.
Продолжительность: 01:46:00
Российская премьера: 25 ноября 2010
В ролях: Максим Матвеев, Елизавета Боярская, Сергей Скоморохов, Александр Кобзарь, Виктор Щур, Геннадий Попенко, Юлия Копылова-Описание: Однажды утром она решила: довольно... и бросила монету в прорезь, превратив квартиру в музыкальный автомат, созданный единственно для того, чтобы они смогли с легкостью расстаться, когда любовь будет позади. Расстаться без пошлых сцен, без упреков, под звуки громкой и неизменно радостной музыки. Но распад прежде счастливого «королевства» не мог не иметь последствий. Власть человеческих чувств и могущество таинственных сил уже наложило отпечаток на их судьбу...-
Качество видео: DVDRip
Формат видео: AVI
Видео кодек: XviD
Аудио кодек: AC3
Видео: 720х400, 1493 Кбит/сек, 25,000 кадров/сек
Аудио: 448 Кбит/сек, 6 каналов, 48,0 КГц
[Трускавецкий международный кинофестиваль "Корона Карпат" http://koronakarpat.com.ua] (Трускавец, Украина, 2011):
Приз «Лучшая женская роль» (Елизавета Боярская)
I Российский фестиваль семейного кино «Мамонтоша» (Салехард, Россия):
Приз «Лучший фильм»
Приз «Лучшая женская роль» (Елизавета Боярская)
III Киевский Международный Кинофестиваль (Киев, Украина, 2011):
Фильм открытия кинофестиваля
IV Всероссийский кинофестиваль «Золотой феникс» (Смоленск, Россия, 2011):
Специальный приз им. мецената Марии Тенишевой «Лучшая продюсерская группа» (Игорь Копылов, Сергей Скоморохов, Сергей Кошонин, Алексей Подзоров, Михаил Васильев)
XIX Санкт-Петербургский Международный Кинофестиваль «Фестиваль Фестивалей» (Санкт-Петербург, Россия, 2011):
Приз творческой поддержки им. Николая Овсянникова «За лучший дебют» (Игорь Копылов, Сергей Скоморохов, Сергей Кошонин, Алексей Подзоров, Михаил Васильев)
Премия Петербургской Федерации Кинопрессы «Золотая Медаль» (Санкт-Петербург, Россия, 2011):
Приз «Лучшая операторская работа» (Димитрий Масс)
V Международный кинофестиваль Ибицы (Ибица, Испания, 2011):
Приз «Лучшая операторская работа» (Димитрий Масс)
Приз «Лучший саундтрек» (Игорь Вдовин, Антон Байбаков)
Участие в кинофестивале «Неделя российского кино в Австрии» (Вена, Австрия, 2011)
Чебоксарский Международный Кинофестиваль 2011 (Чебоксары, Россия, 2011):
Приз Жюри Прессы
XVII Российский кинофестиваль «Литература и кино» (Гатчина, Россия, 2011):
Приз «Лучшая женская роль» (Елизавета Боярская)
Приз «Лучшая операторская работа» (Димитрий Масс)
IX Международный фестиваль кинематографических дебютов «Дух Огня» (Ханты-Мансийск, Россия, 2011):
Приз «Лучший актерский ансамбль» (Максим Матвеев, Елизавета Боярская)
Кинофестиваль «Амурская осень 2010» (Благовещенск, Россия, 2010):
Приз «Лучшая операторская работа» (Димитрий Масс)
Участие в кинофестивале «Неделя российского кино» в Париже (Париж, Франция, 2010)
Общее
Полное имя : E:\Загрузки\Ne.skazhu.2010.XviD.DVDRip.avi
Формат : AVI
Формат/Информация : Audio Video Interleave
Размер файла : 1,45 Гбайт
Продолжительность : 1 ч. 46 м.
Общий поток : 1950 Кбит/сек
Программа кодирования : VirtualDubMod 1.5.10.2 (build 2540/release)
Библиотека кодирования : VirtualDubMod build 2540/release
Видео
Идентификатор : 0
Формат : MPEG-4 Visual
Профиль формата : Advanced [email protected]
Параметр BVOP формата : 3
Параметр QPel формата : Нет
Параметр GMC формата : Без точки перехода
Параметр матрицы формата : Default (MPEG)
Идентификатор кодека : XVID
Идентификатор кодека/Подсказка : XviD
Продолжительность : 1 ч. 46 м.
Битрейт : 1493 Кбит/сек
Ширина : 720 пикселей
Высота : 400 пикселей
Соотношение сторон : 16:9
Частота кадров : 25,000 кадров/сек
Цветовое пространство : YUV
Субдискретизация насыщенности : 4:2:0
Битовая глубина : 8 бит
Тип развёртки : Прогрессивная
Метод сжатия : С потерями
Бит/(Пиксели*Кадры) : 0.207
Размер потока : 1,11 Гбайт (77%)
Библиотека кодирования : XviD 1.2.0.dev47 (UTC 2006-11-01)
Аудио
Идентификатор : 1
Формат : AC-3
Формат/Информация : Audio Coding 3
Расширение режима : CM (complete main)
Параметр Endianness формата : Big
Идентификатор кодека : 2000
Продолжительность : 1 ч. 46 м.
Вид битрейта : Постоянный
Битрейт : 448 Кбит/сек
Каналы : 6 каналов
Расположение каналов : Front: L C R, Side: L R, LFE
Частота : 48,0 КГц
Битовая глубина : 16 бит
Метод сжатия : С потерями
Размер потока : 342 Мбайт (23%)
Выравнивание : Разделение по промежуткам
Продолжительность промежутка : 40 мс. (1,00 видеокадр)
Время предзагрузки промежутка : 500 мс.
- В основу сценария легла пьеса, написанная Игорем Копыловым в студенческие годы.
- Фильм снимался ровно 17 дней.
Download / Скачать

Хотите скачать бесплатно? Зарегистрируйтесь на сайте (ссылка на регистрацию). Pirat.ca - самый быстрый торрент трекер в рунете!

Как скачивать  ·   Что такое торрент  ·   Рейтинг и ограничения

Пост 28-Сен-2012 10:06 (спустя 1 час 35 минут)

Топик был перенесен из форума Наше кино (Трюм) в форум Российские фильмы

ara1205
 

NektoWaso

Флибустьер

Пост 11-Фев-2014 22:36 (спустя 1 год 4 месяца)

[Q] 

Замечательное кино, необычное! Рекомендую! :)
[Профиль]  [ЛС] 

alca21

Юнга

Пост 12-Фев-2014 19:53 (спустя 21 час)

[Q] 

Боярская актриска так себе, сильно переигрывает, но фильм очень и очень неплох!!!
[Профиль]  [ЛС] 

NektoWaso

Флибустьер

Пост 15-Фев-2014 07:12 (спустя 2 дня 11 часов)

[Q] 

Товарищи!! неужели никто не скачивал?!! Несколько дней ни одного раздающего этот забавный фильм.... :(
[Профиль]  [ЛС] 
Показать сообщения:    
Ответить на тему

Текущее время: Сегодня 06:13

Часовой пояс: GMT + 4



Вы не можете начинать темы
Вы не можете отвечать на сообщения
Вы не можете редактировать свои сообщения
Вы не можете удалять свои сообщения
Вы не можете голосовать в опросах
Вы не можете прикреплять файлы к сообщениям
Вы не можете скачивать файлы

▼ Вниз