ML
     
  Уважаемый Гость!
Вы можете поддержать проект и зарегистрироваться у наших партнеров - онлайн-стратегия MyLands. При регистрации в игре Вы получите код, который сможете активировать после регистрации на pirat.ca и получить 1000 дублонов.

Ваш код:
dbd0d701284cde74a1f34d06ce20b7bc75a73e75
 
     

Рейдер (Всеволод Аравин) [2011 г., драма, криминал, HDRip]

Ответить на тему
 
Автор
Сообщение

Пост 27-Окт-2011 21:48

[Q] 

Moln1a

Корсар

Рейдер
Год выпуска: 2011
Жанр: драма, криминал
Продолжительность: 01:36:14
Режиссер: Всеволод Аравин
В ролях: Егор Бероев, Виталий Хаев, Екатерина Вилкова, Виктор Раков, Кирилл Плетнёв, Владимир Стеклов, Вячеслав Разбегаев, Валентина Талызина, Сергей Угрюмов, Роман Полянский
Описание: Рейдеры охотники за большим бизнесом. Чтобы завладеть успешным предприятием, они идут на подделку документов, применение силы и даже убийства. Противостоять им невозможно Очередной заказ могущественного рейдера Спирского захватить научно-исследовательский институт. Смещенный с должности директор захваченного НИИ обращается за помощью к известному адвокату Павлову. Ситуация выходит из-под контроля рейдеров. Благодаря случайному знакомству с очаровательной Настей, Павлов узнает шокирующие факты о реальных причинах рейдерского захвата
Качество: HDRip
Формат: AVI
Видео кодек: XviD
Аудио кодек: AC3
Видео: 720x384 (1.88:1), 23.976 fps, XviD MPEG-4 ~1643 kbps avg, 0.25 bit/pixel
Аудио: 48 kHz, AC3 Dolby Digital, 3/2 (L,C,R,l,r) + LFE ch, ~384 kbps
Формат : AVI
Формат/Информация : Audio Video Interleave
Размер файла : 1,37 Гбайт
Продолжительность : 1 ч. 36 м.
Общий поток : 2037 Кбит/сек
Программа кодирования : VirtualDubMod 1.5.4.1 (build 2178/release)
Библиотека кодирования : VirtualDubMod build 2178/release
Видео
Идентификатор : 0
Формат : MPEG-4 Visual
Профиль формата : Advanced [email protected]
Параметр BVOP формата : 2
Параметр QPel формата : Нет
Параметр GMC формата : Без точки перехода
Параметр матрицы формата : Выборочная
Идентификатор кодека : XVID
Идентификатор кодека/Подсказка : XviD
Продолжительность : 1 ч. 36 м.
Битрейт : 1644 Кбит/сек
Ширина : 720 пикселей
Высота : 384 пикселя
Соотношение сторон : 1,875
Частота кадров : 23,976 кадра/сек
Цветовое пространство : YUV
Субдискретизация насыщенности : 4:2:0
Битовая глубина : 8 бит
Тип развёртки : Прогрессивная
Метод сжатия : С потерями
Бит/(Пиксели*Кадры) : 0.248
Размер потока : 1,11 Гбайт (81%)
Библиотека кодирования : XviD 58
Аудио
Идентификатор : 1
Формат : AC-3
Формат/Информация : Audio Coding 3
Расширение режима : CM (complete main)
Идентификатор кодека : 2000
Продолжительность : 1 ч. 36 м.
Вид битрейта : Постоянный
Битрейт : 384 Кбит/сек
Каналы : 6 каналов
Расположение каналов : Front: L C R, Side: L R, LFE
Частота : 48,0 КГц
Битовая глубина : 16 бит
Метод сжатия : С потерями
Размер потока : 264 Мбайт (19%)
Выравнивание : Разделение по промежуткам
Продолжительность промежутка : 42 мс. (1,00 видеокадр)
Время предзагрузки промежутка : 500 мс.


Download / Скачать

Хотите скачать бесплатно? Зарегистрируйтесь на сайте (ссылка на регистрацию). Pirat.ca - самый быстрый торрент трекер в рунете!

Как скачивать  ·   Что такое торрент  ·   Рейтинг и ограничения



Последний раз редактировалось: Moln1a (2011-10-28 08:46), всего редактировалось 1 раз

Юра064

Лоцман

Пост 27-Окт-2011 23:13 (спустя 1 час 25 минут)

[Q] 

Спасибо
[Профиль]  [ЛС] 

Пост 29-Окт-2011 03:40 (спустя 1 день 4 часа)

Топик был перенесен из форума Наше Кино в форум Новинки (BDRip/HDRip/DVDRip/DVDScr/ТС/SATRip/WP )

oliks
 

Tugeich

Лоцман

Пост 30-Окт-2011 10:24 (спустя 2 дня 11 часов)

[Q] 

Спасибо.
[Профиль]  [ЛС] 

darkman11

Лоцман

Пост 30-Окт-2011 16:22 (спустя 5 часов)

[Q] 

спасибо
[Профиль]  [ЛС] 

Satd79

Штурман

Пост 01-Ноя-2011 16:06 (спустя 1 день 23 часа)

[Q] 

спасибо.
[Профиль]  [ЛС] 

hambaga

Лоцман

Пост 01-Ноя-2011 20:50 (спустя 4 часа)

[Q] 

Спасибо!!!!Пиратка Растет!!!
[Профиль]  [ЛС] 

Kenigsberg

Шкипер

Пост 02-Ноя-2011 12:10 (спустя 15 часов)

[Q] 

спасибо друзья
[Профиль]  [ЛС] 

Kenigsberg

Шкипер

Пост 02-Ноя-2011 12:11 (спустя 1 минута)

[Q] 

спасибо друганы
[Профиль]  [ЛС] 

NewTor

Гроза морей

Пост 30-Ноя-2011 23:21 (спустя 28 дней)

[Q] 

Егорушка Бероев - чудо!!!!
[Профиль]  [ЛС] 

Пост 08-Дек-2011 14:13 (спустя 7 дней)

Топик был перенесен из форума Новинки (HD|DVD|BD|TV|SAT|PDTV| - Rips) в форум Российские фильмы

oliks
 

Атлантида

Лоцман

Пост 29-Дек-2011 18:50 (спустя 28 дней)

[Q] 

Смотрим...
[Профиль]  [ЛС] 
Показать сообщения:    
Ответить на тему

Текущее время: Сегодня 18:31

Часовой пояс: GMT + 4



Вы не можете начинать темы
Вы не можете отвечать на сообщения
Вы не можете редактировать свои сообщения
Вы не можете удалять свои сообщения
Вы не можете голосовать в опросах
Вы не можете прикреплять файлы к сообщениям
Вы не можете скачивать файлы

▼ Вниз