ML
     
  Уважаемый Гость!
Вы можете поддержать проект и зарегистрироваться у наших партнеров - онлайн-стратегия MyLands. При регистрации в игре Вы получите код, который сможете активировать после регистрации на pirat.ca и получить 1000 дублонов.

Ваш код:
2a3da67fd641d69eeebb7cb965232435a70eaa24
 
     

За тобой (Татьяна Ивашкина) [2011 г., драма, DVDRip]

Ответить на тему
 
Автор
Сообщение

Пост 05-Окт-2012 08:25

[Q] 

UA4HQW

Флибустьер

-За тобой-- Производство: Россия
Режиссер: Татьяна Ивашкина
Жанр: драма
Год выпуска: 2011 г.
Продолжительность: 01:13:00
Российская премьера: 18 августа 2011
Дата выхода DVD: 27 сентября 2012
В ролях: Светлана Ходченкова, Максим Колесников, Алексей Серебряков, Владислав Ветров, Анна Алексахина, Андрей Шибаршин, Мария Курденевич-Описание: Воспитывающая в одиночку младшего брата-инвалида, двадцатилетняя Кира однажды оказывается перед выбором: спасти жизнь чужого человека или уберечь свою. На принятие решения ей отведено лишь мгновение. И за это время девушка успевает совершить долгое путешествие по иллюзорным мирам своих фантазий и воспоминаний. Что ждет ее в конце пути? Освобождение? Надежда? Чья-то смерть?-Сэмпл КиноПоиск
Качество видео: DVDRip
Формат видео: AVI
Видео кодек: XviD
Аудио кодек: AC3
Видео: 720x400 (1.80:1), 25 fps, XviD build 50 ~2224 kbps avg, 0.31 bit/pixel
Аудио: 48 kHz, AC3 Dolby Digital, 3/2 (L,C,R,l,r) + LFE ch, ~448 kbps
Общее
Полное имя : За тобой.DVDRip.avi
Формат : AVI
Формат/Информация : Audio Video Interleave
Размер файла : 1,37 Гбайт
Продолжительность : 1 ч. 13 м.
Общий поток : 2682 Кбит/сек
Название фильма : Za.toboj.2011.O.DVDRip
Режиссёр :
Жанр : Drama
Программа кодирования : VirtualDubModRus 1.5.10.2 (build 2542/release)
Формат оригинала/Имя : Movie
Правообладатель :
Видео
Идентификатор : 0
Формат : MPEG-4 Visual
Профиль формата : Advanced [email protected]
Параметр BVOP формата : 2
Параметр QPel формата : Нет
Параметр GMC формата : Без точки перехода
Параметр матрицы формата : Выборочная
Идентификатор кодека : XVID
Идентификатор кодека/Подсказка : XviD
Продолжительность : 1 ч. 13 м.
Битрейт : 2224 Кбит/сек
Ширина : 720 пикс.
Высота : 400 пикс.
Соотношение сторон : 16:9
Частота кадров : 25,000 кадр/сек
Цветовое пространство : YUV
Подвыборка цветности : 4:2:0
Битовая глубина : 8 бит
Тип развёртки : Прогрессивная
Метод сжатия : С потерями
Бит/(Пиксели*Кадры) : 0.309
Размер потока : 1,13 Гбайт (83%)
Библиотека кодирования : XviD 1.2.1 (UTC 2008-12-04)
Аудио
Идентификатор : 1
Формат : AC-3
Формат/Информация : Audio Coding 3
Расширение режима : CM (complete main)
Идентификатор кодека : 2000
Продолжительность : 1 ч. 13 м.
Вид битрейта : Постоянный
Битрейт : 448 Кбит/сек
Каналы : 6 каналов
Расположение каналов : Front: L C R, Side: L R, LFE
Частота : 48,0 КГц
Битовая глубина : 16 бит
Метод сжатия : С потерями
Размер потока : 234 Мбайт (17%)
Выравнивание : Разделение по промежуткам
Продолжительность промежутка : 40 мс. (1,00 видеокадр)
Время предзагрузки промежутка : 500 ms
Download / Скачать

Хотите скачать бесплатно? Зарегистрируйтесь на сайте (ссылка на регистрацию). Pirat.ca - самый быстрый торрент трекер в рунете!

Как скачивать  ·   Что такое торрент  ·   Рейтинг и ограничения

Максевич

Штурман

Пост 05-Окт-2012 10:10 (спустя 1 час 45 минут)

[Q] 

как кино?

_________________
[Профиль]  [ЛС] 

Пост 05-Окт-2012 12:00 (спустя 1 час 50 минут)

Топик был перенесен из форума Наше кино (Трюм) в форум Новинки (HD|DVD|BD|TV|SAT|PDTV| - Rips)

erchine
 

krendel1973

Флибустьер

Пост 05-Окт-2012 12:30 (спустя 2 часа 19 минут)

[Q] 

Заценим.
[Профиль]  [ЛС] 

xxxLOGICxxx

Корсар

Пост 05-Окт-2012 16:02 (спустя 3 часа)

[Q] 

[Профиль]  [ЛС] 

cruzzel

Корсар

Пост 05-Окт-2012 20:07 (спустя 4 часа)

[Q] 


_________________
NEWSLOL.NET
[Профиль]  [ЛС] 

seldays

Корсар

Пост 05-Окт-2012 22:21 (спустя 2 часа 14 минут)

[Q] 

Спасибо сказал! Буду смотреть намедни.

_________________
[Профиль]  [ЛС] 

Nech

Шкипер

Пост 06-Окт-2012 16:02 (спустя 17 часов)

[Q] 

качественный фильм
[Профиль]  [ЛС] 

UA4HQW ®

Флибустьер

2528

Пост 06-Окт-2012 18:18 (спустя 2 часа 16 минут)

[Q] 

Спасибо , конечно , за "спасибо" ! Пишите , плиз , отзывы о фильмах !
[Профиль]  [ЛС] 

Valf66

Морской Волк

Пост 12-Окт-2012 19:40 (спустя 6 дней)

[Q] 

Отличный фильм!
[Профиль]  [ЛС] 

охота

Шкипер

Пост 13-Окт-2012 20:09 (спустя 1 день)

[Q] 

скрины конечно информативные
[Профиль]  [ЛС] 

Пост 08-Ноя-2012 14:34 (спустя 25 дней)

Топик был перенесен из форума Новинки (HD|DVD|BD|TV|SAT|PDTV| - Rips) в форум Российские фильмы

ara1205
 
Показать сообщения:    
Ответить на тему

Текущее время: Сегодня 01:15

Часовой пояс: GMT + 4



Вы не можете начинать темы
Вы не можете отвечать на сообщения
Вы не можете редактировать свои сообщения
Вы не можете удалять свои сообщения
Вы не можете голосовать в опросах
Вы не можете прикреплять файлы к сообщениям
Вы не можете скачивать файлы

▼ Вниз