ML
     
  Уважаемый Гость!
Вы можете поддержать проект и зарегистрироваться у наших партнеров - онлайн-стратегия MyLands. При регистрации в игре Вы получите код, который сможете активировать после регистрации на pirat.ca и получить 1000 дублонов.

Ваш код:
2a3da67fd641d69eeebb7cb965232435a70eaa24
 
     

В ожидании чуда (Евгений Бедарев) [2007 г., комедия, мелодрама, DVDRip]

Ответить на тему
 
Автор
Сообщение

Пост 05-Окт-2012 14:42

[Q] 

Элизиотта

Морской Волк

-В ожидании чуда-- Производство: Россия
Режиссер: Евгений Бедарев
Жанр: комедия, мелодрама
Год выпуска: 2007 г.
Продолжительность: 01:32:56
Российская премьера: 5 апреля 2007
В ролях: Екатерина Копанова, Владимир Крылов, Нина Русланова, Татьяна Васильева, Олеся Судзиловская, Михаил Химичев, Станислав Бондаренко, Лилия Кондрова, Антон Макарский, Владимир Долинский-Описание: История молодой девушки, верящей в чудеса. Парни на нее не обращают никакого внимания, на работе крадут и пользуются ее идеями, друзья считают ее немного странной, но юная девушка не унывает и продолжает верить в принца на белом коне. И однажды он появляется.
Красивый, молодой, ему подвластно волшебство, а отныне и ее чувства. Как теперь не поверить в сказку, когда сама в ней оказалась?… Долгожданный принц сделает ее жизнь поистине волшебной.-КиноПоиск
Качество видео: DVDRip
Формат видео: AVI
Видео кодек: XviD
Аудио кодек: MP3
Видео: 576х256, 919 Кбит/сек, 25,000 кадр/сек
Аудио: 128 Кбит/сек, 2 канала, 48,0 КГц
Cубтитры: отсутствуют
Общее
Полное имя : H:\V.ozidanii.chuda[Pirat.ca].avi
Формат : AVI
Формат/Информация : Audio Video Interleave
Размер файла : 701 Мбайт
Продолжительность : 1 ч. 32 м.
Общий поток : 1054 Кбит/сек
Программа кодирования : VirtualDubMod 1.5.4.1 (build 2178/release)
Библиотека кодирования : VirtualDubMod build 2178/release
Видео
Идентификатор : 0
Формат : MPEG-4 Visual
Профиль формата : Advanced [email protected]
Параметр BVOP формата : 1
Параметр QPel формата : Нет
Параметр GMC формата : Без точки перехода
Параметр матрицы формата : Выборочная
Идентификатор кодека : XVID
Идентификатор кодека/Подсказка : XviD
Продолжительность : 1 ч. 32 м.
Битрейт : 919 Кбит/сек
Ширина : 576 пикс.
Высота : 256 пикс.
Соотношение сторон : 2,25:1
Частота кадров : 25,000 кадр/сек
Цветовое пространство : YUV
Подвыборка цветности : 4:2:0
Битовая глубина : 8 бит
Тип развёртки : Прогрессивная
Метод сжатия : С потерями
Бит/(Пиксели*Кадры) : 0.249
Размер потока : 611 Мбайт (87%)
Библиотека кодирования : XviD 1.2.0.dev47 (UTC 2006-11-01)
Аудио
Идентификатор : 1
Формат : MPEG Audio
Версия формата : Version 1
Профиль формата : Layer 3
Режим : Joint stereo
Расширение режима : MS Stereo
Идентификатор кодека : 55
Идентификатор кодека/Подсказка : MP3
Продолжительность : 1 ч. 32 м.
Вид битрейта : Постоянный
Битрейт : 128 Кбит/сек
Каналы : 2 канала
Частота : 48,0 КГц
Метод сжатия : С потерями
Размер потока : 85,1 Мбайт (12%)
Выравнивание : Соединение по промежуткам
Продолжительность промежутка : 80 мс. (2,00 видеокадра)
Время предзагрузки промежутка : 504 ms
Библиотека кодирования : LAME3.97
Настройки программы : -m j -V 4 -q 2 -lowpass 17 -b 128
Язык : Russian
Download / Скачать

Хотите скачать бесплатно? Зарегистрируйтесь на сайте (ссылка на регистрацию). Pirat.ca - самый быстрый торрент трекер в рунете!

Как скачивать  ·   Что такое торрент  ·   Рейтинг и ограничения



Последний раз редактировалось: Элизиотта (2012-10-05 20:09), всего редактировалось 1 раз

erchine

44808

Пост 05-Окт-2012 17:24 (спустя 2 часа 42 минуты)

[Q] 

Сомнительно. Ну очень низкое разрешение видео:
Видео: 576х256
[Профиль]  [ЛС] 

Пост 05-Окт-2012 17:24 (спустя 24 секунды)

Топик был перенесен из форума Зарубежное Кино (Трюм) в форум Российские фильмы

erchine
 
Показать сообщения:    
Ответить на тему

Текущее время: Сегодня 01:16

Часовой пояс: GMT + 4



Вы не можете начинать темы
Вы не можете отвечать на сообщения
Вы не можете редактировать свои сообщения
Вы не можете удалять свои сообщения
Вы не можете голосовать в опросах
Вы не можете прикреплять файлы к сообщениям
Вы не можете скачивать файлы

▼ Вниз