ML
     
  Уважаемый Гость!
Вы можете поддержать проект и зарегистрироваться у наших партнеров - онлайн-стратегия MyLands. При регистрации в игре Вы получите код, который сможете активировать после регистрации на pirat.ca и получить 1000 дублонов.

Ваш код:
59354507ba913a0948d1a8f2e30f2e04c4cd7b9b
 
     

Поцелуй сквозь стену (Вартан Акопян) [2011 г., фантастика, мелодрама, комедия, HDRip]

Ответить на тему
 
Автор
Сообщение

Пост 09-Окт-2012 22:32

[Q] 

Amethyst

-Поцелуй сквозь стену
«Любовь и... никакого мошенничества»
-- Производство: Россия
Режиссер: Вартан Акопян
Жанр: фантастика, мелодрама, комедия
Год выпуска: 2011 г.
Продолжительность: 01:30:06
Перевод: Не требуется [Лицензия]
Российская премьера: 25 января 2011, «Парадиз»
Дата выхода DVD: 24 февраля 2011, «Парадиз Видео»
В ролях: Антон Шагин, Карина Андоленко, Павел Воля, Александр Адабашьян, Михаил Тарабукин, Иван Охлобыстин, Анна Бердникова, Сергей Газаров, Светлана Немоляева, Олег Тополянский-Описание: Что нужно сделать, чтобы добиться любви дерзкой журналистки, да еще по имени Алиса? Подарить ей лютики? Сказать: «Алиса, лисичка моя». Подкатить на карете? Или тупо завалить ее деньгами и подарками? Пока Кеша, помощник знаменитого фокусника, ломает над этим голову, его увольняют с работы и он остается с двумя десятками в кармане и чувством, что жизнь не удалась. Да и те клянчит какой-то бродяга, обещая исполнить любое его желание. А после встречи с ним, Кеша осознает: Он умеет проходить сквозь стены! Его новый дар — путь к счастью. Но даже, если все стены мира — не помеха, как пробиться к сердцу любимой?-Сэмпл | IMDB | КиноПоиск
Качество видео: HDRip
Формат видео: AVI
Видео кодек: XviD
Аудио кодек: AC3
Видео: XviD, 720x304 (2.35:1), 23.976 fps, 1931 kbps
Аудио: AC3, 6 ch, 384 Кбит/сек, 48,0 КГц
Общее
Полное имя : D:\Торенты\Poceluy skvoz stenu 2011HDrip.avi
Формат : AVI
Формат/Информация : Audio Video Interleave
Размер файла : 1,46 Гбайт
Продолжительность : 1 ч. 30 м.
Общий поток : 2324 Кбит/сек
Программа кодирования : VirtualDubMod 1.5.10.3 | www.virtualdub-fr.org || (build 2550/release)
Библиотека кодирования : VirtualDubMod build 2550/release
Видео
Идентификатор : 0
Формат : MPEG-4 Visual
Профиль формата : Advanced [email protected]
Параметр BVOP формата : 1
Параметр QPel формата : Нет
Параметр GMC формата : Без точки перехода
Параметр матрицы формата : Выборочная
Идентификатор кодека : XVID
Идентификатор кодека/Подсказка : XviD
Продолжительность : 1 ч. 30 м.
Битрейт : 1931 Кбит/сек
Ширина : 720 пикселей
Высота : 304 пикселя
Соотношение сторон : 2,35:1
Частота кадров : 23,976 кадра/сек
Цветовое пространство : YUV
Субдискретизация насыщенности : 4:2:0
Битовая глубина : 8 бит
Тип развёртки : Прогрессивная
Метод сжатия : С потерями
Бит/(Пиксели*Кадры) : 0.368
Размер потока : 1,22 Гбайт (83%)
Библиотека кодирования : XviD 64
Аудио
Идентификатор : 1
Формат : AC-3
Формат/Информация : Audio Coding 3
Расширение режима : CM (complete main)
Параметр Endianness формата : Big
Идентификатор кодека : 2000
Продолжительность : 1 ч. 30 м.
Вид битрейта : Постоянный
Битрейт : 384 Кбит/сек
Каналы : 6 каналов
Расположение каналов : Front: L C R, Side: L R, LFE
Частота : 48,0 КГц
Битовая глубина : 16 бит
Метод сжатия : С потерями
Размер потока : 247 Мбайт (17%)
Выравнивание : Разделение по промежуткам
Продолжительность промежутка : 42 мс. (1,00 видеокадр)
Время предзагрузки промежутка : 500 мс.
-
Download / Скачать

Хотите скачать бесплатно? Зарегистрируйтесь на сайте (ссылка на регистрацию). Pirat.ca - самый быстрый торрент трекер в рунете!

Как скачивать  ·   Что такое торрент  ·   Рейтинг и ограничения

Пост 09-Окт-2012 23:08 (спустя 35 минут)

Топик был перенесен из форума Наше кино (Трюм) в форум Российские фильмы

erchine
 

strikeF

Корсар

Пост 11-Ноя-2012 22:54 (спустя 1 месяц 2 дня)

[Q] 

[Профиль]  [ЛС] 

Димарик82

Корсар

725

Пост 14-Ноя-2012 23:24 (спустя 3 дня)

[Q] 

[Профиль]  [ЛС] 

dr_web

Лоцман

8

Пост 18-Ноя-2012 11:14 (спустя 3 дня)

[Q] 

[Профиль]  [ЛС] 

Alexxx05

Морской Волк

Пост 10-Июл-2013 23:01 (спустя 7 месяцев 22 дня)

[Q] 

Народ!Помогите с разачей.Плииииз!!!
[Профиль]  [ЛС] 

Alexxx05

Морской Волк

Пост 10-Июл-2013 23:08 (спустя 6 минут)

[Q] 

[Профиль]  [ЛС] 

Alexxx05

Морской Волк

Пост 10-Июл-2013 23:42 (спустя 34 минуты)

[Q] 

ну пажалуйста)))
[Профиль]  [ЛС] 

Alexxx05

Морской Волк

Пост 11-Июл-2013 10:38 (спустя 10 часов)

[Q] 

Блин народ!Ну помогите с раздачей ,почти сутки уже качаю...
[Профиль]  [ЛС] 
Показать сообщения:    
Ответить на тему

Текущее время: Сегодня 16:10

Часовой пояс: GMT + 4



Вы не можете начинать темы
Вы не можете отвечать на сообщения
Вы не можете редактировать свои сообщения
Вы не можете удалять свои сообщения
Вы не можете голосовать в опросах
Вы не можете прикреплять файлы к сообщениям
Вы не можете скачивать файлы

▼ Вниз