ML
     
  Уважаемый Гость!
Вы можете поддержать проект и зарегистрироваться у наших партнеров - онлайн-стратегия MyLands. При регистрации в игре Вы получите код, который сможете активировать после регистрации на pirat.ca и получить 1000 дублонов.

Ваш код:
4855957e17f50c5c1236a0f8c4492b2b0bba00a0
 
     

Край (Алексей Учитель) [2010 г., драма, история, HDRip-AVC] [internal release]

Ответить на тему
 
Автор
Сообщение

Пост 13-Дек-2011 02:57

[Q] 

zyyx

--Край-- Год выпуска: 2010
Мировая премьера: 9 сентября 2010
Российская премьера: 23 сентября 2010, «Централ Партнершип»
Дата выхода DVD: 21 октября 2010, «Мистерия Звука», «Монолит»
Дата выхода Blu-Ray: 21 октября 2010, «Мистерия Звука», «Монолит»
Страна: Россия
Жанр: драма, история
Продолжительность: 02:03:33
Перевод: Не требуется [Лицензия]
Режиссер: Алексей Учитель
В ролях: Владимир Машков, Сергей Гармаш, Владас Багдонас, Александр Баширов, Юлия Пересильд, Анна Уколова, Семен Белоцерковский, Алексей Горбунов, Вячеслав Крикунов, Аньорка Штрехель
Описание: В августе 1945-го в далекий поселок с названием Край с войны возвращается бывший танкист Игнат, чья страсть — паровозы. Он узнает, что на уединенном острове с довоенных времен брошен немецкий паровоз, и принимается его восстанавливать. Но, оказывается, у паровоза уже есть имя — «Густав», и есть хозяйка — Эльза, дочь немецкого инженера, арестованного в начале войны. Да и для сельчан одержимый мечтой, свободный Игнат — чужак. Страсти закипают шекспировские, причем в них задействованы не только люди, но и несколько паровозов, почти живые существа, у каждого свое имя…- -Источник/Качество: HDRip-AVC | Сэмпл
Формат: MKV
Видео кодек: H.26x
Аудио кодек: AC3
Видео: 1024x576, 24.00fps, 1987 Kbps 0.140 b/px
Аудио: 48000Hz, 6ch, 384 Kbps
General
Unique ID : 207905616812500409247750738478221640562 (0x9C692A514493233BBDBE02649CBA4372)
Complete name : D:\JRG\The Edge.2010..x264.HDRip-AVC.zyyx.mkv
Format : Matroska
Format version : Version 2
File size : 2.05 GiB
Duration : 2h 3mn
Overall bit rate : 2 372 Kbps
Movie name : Internal Release Exclusive For http://pirat.ca by zyyx
Encoded date : UTC 2011-12-13 00:41:23
Writing application : mkvmerge v4.6.0 ('Still Crazy After All These Years') сборка от Mar 13 2011 18:33:29
Writing library : libebml v1.2.0 + libmatroska v1.1.0
Video
ID : 1
Format : AVC
Format/Info : Advanced Video Codec
Format profile : [email protected]
Format settings, CABAC : Yes
Format settings, ReFrames : 16 frames
Muxing mode : Header stripping
Codec ID : V_MPEG4/ISO/AVC
Duration : 2h 3mn
Bit rate : 1 987 Kbps
Width : 1 024 pixels
Height : 576 pixels
Display aspect ratio : 16:9
Frame rate : 24.000 fps
Color space : YUV
Chroma subsampling : 4:2:0
Bit depth : 8 bits
Scan type : Progressive
Bits/(Pixel*Frame) : 0.140
Stream size : 1.67 GiB (82%)
Writing library : x264 core 114 r1924 08d04a4
Encoding settings : cabac=1 / ref=16 / deblock=1:-2:-1 / analyse=0x3:0x133 / me=umh / subme=9 / psy=1 / psy_rd=1.00:0.10 / mixed_ref=1 / me_range=32 / chroma_me=1 / trellis=2 / 8x8dct=1 / cqm=0 / deadzone=21,11 / fast_pskip=0 / chroma_qp_offset=-3 / threads=6 / sliced_threads=0 / nr=0 / decimate=1 / interlaced=0 / constrained_intra=0 / bframes=8 / b_pyramid=2 / b_adapt=2 / b_bias=0 / direct=3 / weightb=1 / open_gop=0 / weightp=2 / keyint=250 / keyint_min=23 / scenecut=40 / intra_refresh=0 / rc_lookahead=50 / rc=2pass / mbtree=1 / bitrate=1987 / ratetol=1.0 / qcomp=0.60 / qpmin=0 / qpmax=69 / qpstep=4 / cplxblur=20.0 / qblur=0.5 / ip_ratio=1.40 / aq=1:1.00
Audio
ID : 2
Format : AC-3
Format/Info : Audio Coding 3
Mode extension : CM (complete main)
Muxing mode : Header stripping
Codec ID : A_AC3
Duration : 2h 3mn
Bit rate mode : Constant
Bit rate : 384 Kbps
Channel(s) : 6 channels
Channel positions : Front: L C R, Side: L R, LFE
Sampling rate : 48.0 KHz
Bit depth : 16 bits
Compression mode : Lossy
Stream size : 339 MiB (16%)




Download / Скачать

Хотите скачать бесплатно? Зарегистрируйтесь на сайте (ссылка на регистрацию). Pirat.ca - самый быстрый торрент трекер в рунете!

Как скачивать  ·   Что такое торрент  ·   Рейтинг и ограничения

Пост 13-Дек-2011 06:36 (спустя 3 часа)

Топик был перенесен из форума Наше Кино в форум Российские фильмы

Skinwalker
 

Kulek

Лоцман

281

Пост 08-Янв-2012 12:54 (спустя 26 дней)

[Q] 

Есть хоть кто-нибудь со 100% скачанного фильма? Уже 6 дней не могу докачать.
[Профиль]  [ЛС] 
Показать сообщения:    
Ответить на тему

Текущее время: Сегодня 06:14

Часовой пояс: GMT + 4



Вы не можете начинать темы
Вы не можете отвечать на сообщения
Вы не можете редактировать свои сообщения
Вы не можете удалять свои сообщения
Вы не можете голосовать в опросах
Вы не можете прикреплять файлы к сообщениям
Вы не можете скачивать файлы

▼ Вниз