ML
     
  Уважаемый Гость!
Вы можете поддержать проект и зарегистрироваться у наших партнеров - онлайн-стратегия MyLands. При регистрации в игре Вы получите код, который сможете активировать после регистрации на pirat.ca и получить 1000 дублонов.

Ваш код:
2fd4e750dd89cae3a36ea360f2b345ccfeb562d3
 
     

Атомный Иван (Василий Бархатов) [2012 г., Мелодрама, Комедия, DVDRip] | Лицензия |

Ответить на тему
 
Автор
Сообщение

Пост 20-Окт-2012 02:18

[Q] 

kiryandr

Легенда

-Атомный Иван-- Производство: Россия / Телесто
Режиссер: Василий Бархатов
Жанр: Мелодрама, Комедия
Год выпуска: 2012 г.
Продолжительность: 01:31:03
Российская премьера: 29 марта 2012, «Панорама Кино»
Дата выхода DVD: 18 октября 2012, «Мистерия Звука»
В ролях: Григорий Добрыгин, Юлия Снигирь, Екатерина Васильева, Марина Голуб, Алексей Горбунов, Евгения Дмитриева, Алексей Колубков, Денис Суханов-Описание: История разворачивается в городе-спутнике одной из крупнейших АЭС. Молодой учёный Ваня, как и его родители, занимается атомной энергетикой, но, как он сам считает, — не по призванию, а только из-за давней любви к бывшей однокурснице Тане. Она, напротив, увлечена своим делом, амбициозна и требовательна в личных отношениях. Однажды Таня решает разорвать эти отношения, потому что не видит в инфантильном и легкомысленном Ване надежного спутника жизни. Но неожиданные события, случившиеся в атомном городке, всё ставят на свои места: героям удаётся обрести и настоящее призвание, и настоящую любовь.-Сэмпл КиноПоиск
Качество видео: DVDRip
Формат видео: AVI
Видео кодек: XviD
Аудио кодек: AC3
Видео: 720x304, 1765 Кбит/сек, 25,000 кадров/сек
Аудио: AC3 5.1, 384 Кбит/сек, 48,0 КГц
Cубтитры: отсутствуют
Общее
Полное имя : Atomnyj.Ivan.2012.DVDRip.avi
Формат : AVI
Формат/Информация : Audio Video Interleave
Размер файла : 1,37 Гбайт
Продолжительность : 1 ч. 31 м.
Общий поток : 2159 Кбит/сек
Программа кодирования : VirtualDubMod 1.5.10.2 (build 2540/release)
Видео
Идентификатор : 0
Формат : MPEG-4 Visual
Профиль формата : Advanced [email protected]
Параметр BVOP формата : 2
Параметр QPel формата : Нет
Параметр GMC формата : Без точки перехода
Параметр матрицы формата : Выборочная
Идентификатор кодека : XVID
Идентификатор кодека/Подсказка : XviD
Продолжительность : 1 ч. 31 м.
Битрейт : 1765 Кбит/сек
Ширина : 720 пикселей
Высота : 304 пикселя
Соотношение сторон : 2,35:1
Частота кадров : 25,000 кадров/сек
Цветовое пространство : YUV
Субдискретизация насыщенности : 4:2:0
Битовая глубина : 8 бит
Тип развёртки : Прогрессивная
Метод сжатия : С потерями
Бит/(Пиксели*Кадры) : 0.323
Размер потока : 1,12 Гбайт (82%)
Библиотека кодирования : XviD 1.2.1 (UTC 2008-12-04)
Аудио
Идентификатор : 1
Формат : AC-3
Формат/Информация : Audio Coding 3
Расширение режима : CM (complete main)
Идентификатор кодека : 2000
Продолжительность : 1 ч. 31 м.
Вид битрейта : Постоянный
Битрейт : 384 Кбит/сек
Каналы : 6 каналов
Расположение каналов : Front: L C R, Side: L R, LFE
Частота : 48,0 КГц
Битовая глубина : 16 бит
Метод сжатия : С потерями
Размер потока : 250 Мбайт (18%)
Выравнивание : Разделение по промежуткам
Продолжительность промежутка : 40 мс. (1,00 видеокадр)
Время предзагрузки промежутка : 500 мс.
Download / Скачать

Хотите скачать бесплатно? Зарегистрируйтесь на сайте (ссылка на регистрацию). Pirat.ca - самый быстрый торрент трекер в рунете!

Как скачивать  ·   Что такое торрент  ·   Рейтинг и ограничения

Пост 20-Окт-2012 07:57 (спустя 5 часов)

Топик был перенесен из форума Наше кино (Трюм) в форум Новинки (HD|DVD|BD|TV|SAT|PDTV| - Rips)

genkasper
 

Серега1988

Штурман

Пост 20-Окт-2012 21:55 (спустя 19 часов)

[Q] 

Мне фильм понравился. По сюжету он вообще необычный. Я не знал какой кадр будет следующим.
Снято очень необычно.
[Профиль]  [ЛС] 

xxxLOGICxxx

Корсар

Пост 20-Окт-2012 23:38 (спустя 1 час 42 минуты)

[Q] 

[Профиль]  [ЛС] 

-Lemon-

Шкипер

Пост 21-Окт-2012 19:22 (спустя 19 часов)

[Q] 

[Профиль]  [ЛС] 

Пашка_Белочка

Лоцман

Пост 21-Окт-2012 21:17 (спустя 1 час 55 минут)

[Q] 

Спасибо)
[Профиль]  [ЛС] 

sidor710nini

Лоцман

Пост 21-Окт-2012 22:01 (спустя 43 минуты)

[Q] 

[Профиль]  [ЛС] 

TauS HiLL

Шкипер

Пост 23-Окт-2012 16:28 (спустя 1 день 18 часов)

[Q] 

лучше б назвали " Радеоктивный Пётр"
[Профиль]  [ЛС] 

massa-69

Лоцман

Пост 26-Окт-2012 17:33 (спустя 3 дня)

[Q] 

Радеоктивный????? - это на каком языке
[Профиль]  [ЛС] 

ksf

Штурман

Пост 27-Окт-2012 01:20 (спустя 7 часов)

[Q] 

[Профиль]  [ЛС] 

Kosmatos

Корсар

Пост 27-Окт-2012 19:26 (спустя 18 часов)

[Q] 

...
247841лучше б назвали " Радеоктивный Пётр"
...Ядерный Василий ... пойдет?
[Профиль]  [ЛС] 

maksssi

Корсар

Пост 16-Ноя-2012 01:48 (спустя 19 дней)

[Q] 

[Профиль]  [ЛС] 

DHARMEEDONT

Флибустьер

Пост 16-Ноя-2012 02:58 (спустя 1 час 9 минут)

[Q] 

[Профиль]  [ЛС] 

bull271174

Флибустьер

Пост 16-Ноя-2012 17:23 (спустя 14 часов)

[Q] 

[Профиль]  [ЛС] 

foma676

Шкипер

Пост 16-Ноя-2012 18:13 (спустя 49 минут)

[Q] 

А мне понравилось).
[Профиль]  [ЛС] 

slavix

Корсар

Пост 16-Ноя-2012 18:40 (спустя 27 минут)

[Q] 

[Профиль]  [ЛС] 

TomCatGun

Флибустьер

Пост 30-Ноя-2012 16:14 (спустя 13 дней)

[Q] 

[Профиль]  [ЛС] 

emilar

Лоцман

Пост 12-Янв-2013 13:16 (спустя 1 месяц 11 дней)

[Q] 

СПАСИБО!!
[Профиль]  [ЛС] 

Paseidon80

Морской Волк

Пост 20-Мар-2013 17:27 (спустя 2 месяца 8 дней)

[Q] 

[Профиль]  [ЛС] 
Показать сообщения:    
Ответить на тему

Текущее время: Сегодня 14:12

Часовой пояс: GMT + 4



Вы не можете начинать темы
Вы не можете отвечать на сообщения
Вы не можете редактировать свои сообщения
Вы не можете удалять свои сообщения
Вы не можете голосовать в опросах
Вы не можете прикреплять файлы к сообщениям
Вы не можете скачивать файлы

▼ Вниз