ML
     
  Уважаемый Гость!
Вы можете поддержать проект и зарегистрироваться у наших партнеров - онлайн-стратегия MyLands. При регистрации в игре Вы получите код, который сможете активировать после регистрации на pirat.ca и получить 1000 дублонов.

Ваш код:
8b29d0f8cd61fe457e59e7df0aa1fab41a2b88b9
 
     

Искупление (Игорь Шкурин / Igor Shkurin) [2012 г., Мелодрама, драма, детектив, SATRip]

Ответить на тему
 
Автор
Сообщение

Пост 22-Окт-2012 15:55

[Q] 

Jigsaw

 
-Искупление-- Производство: Украина, ПрАТ" ММЦ-СТБ"
Режиссер: Игорь Шкурин / Igor Shkurin
Жанр: Мелодрама, драма, детектив
Год выпуска: 2012 г.
Продолжительность: 01:28:00
Мировая премьера: 21 октября 2012 (СТБ Украина)
В ролях: Евгения Гладий, Павел Делонг, Кирилл Сафонов, Сергей Никитин (V), Ирма Витовская, Юрий Гребельник, Илона Бойко-Описание: Известный в городе врач Полина Громова сбивает случайно на своем автомобиле 10-летнего мальчика Семена. Прежде чем заявить об этом случае в милицию, она решает помочь ребенку, отвозит его в свою больницу и пытается поставить на ноги. Андрей, отец Семена, одержим жаждой мести. Не зная о том, что виновница ДТП – Полина, он внезапно влюбляется в молодого врача. Полина отвечает ему взаимностью. Однако все тайное рано или поздно становится явным…-- Семпл | КинотеатрКачество видео: SATRip
Формат видео: AVI
Видео кодек: XviD
Аудио кодек: MP3
Видео: 720x400, 25 fps, XviD, 2117 kbps, 0.294 bit/pixel
Аудио: Russian: 48 kHz, MPEG Layer 3, 2 ch, 192 kbps
Cубтитры: отсутствуют
Общее
Полное имя : F:\Iskuplenie.2012.XviD.SATRip.avi
Формат : AVI
Формат/Информация : Audio Video Interleave
Размер файла : 1,42 Гбайт
Продолжительность : 1 ч. 27 м.
Общий поток : 2319 Кбит/сек
Программа кодирования : VirtualDubModRus 1.5.10.2 (build 2542/release)
Библиотека кодирования : VirtualDubMod build 2542/release
Видео
Идентификатор : 0
Формат : MPEG-4 Visual
Профиль формата : Advanced [email protected]
Параметр BVOP формата : 1
Параметр QPel формата : Нет
Параметр GMC формата : Без точки перехода
Параметр матрицы формата : Default (H.263)
Идентификатор кодека : XVID
Идентификатор кодека/Подсказка : XviD
Продолжительность : 1 ч. 27 м.
Битрейт : 2117 Кбит/сек
Ширина : 720 пикселей
Высота : 400 пикселей
Соотношение сторон : 16:9
Частота кадров : 25,000 кадров/сек
Цветовое пространство : YUV
Субдискретизация насыщенности : 4:2:0
Битовая глубина : 8 бит
Тип развёртки : Прогрессивная
Метод сжатия : С потерями
Бит/(Пиксели*Кадры) : 0.294
Размер потока : 1,30 Гбайт (91%)
Библиотека кодирования : XviD 1.2.1 (UTC 2008-12-04)
Аудио
Идентификатор : 1
Формат : MPEG Audio
Версия формата : Version 1
Профиль формата : Layer 3
Режим : Joint stereo
Расширение режима : MS Stereo
Идентификатор кодека : 55
Идентификатор кодека/Подсказка : MP3
Продолжительность : 1 ч. 27 м.
Вид битрейта : Постоянный
Битрейт : 192 Кбит/сек
Каналы : 2 канала
Частота : 48,0 КГц
Метод сжатия : С потерями
Размер потока : 120 Мбайт (8%)
Выравнивание : Соединение по промежуткам
Продолжительность промежутка : 40 мс. (1,00 видеокадр)
Время предзагрузки промежутка : 504 мс.
Библиотека кодирования : LAME3.98r
Настройки программы : -m j -V 4 -q 2 -lowpass 18.6 -b 192
Download / Скачать

Хотите скачать бесплатно? Зарегистрируйтесь на сайте (ссылка на регистрацию). Pirat.ca - самый быстрый торрент трекер в рунете!

Как скачивать  ·   Что такое торрент  ·   Рейтинг и ограничения

Пост 22-Окт-2012 16:05 (спустя 9 минут)

Топик был перенесен из форума Наше кино (Трюм) в форум Новинки (HD|DVD|BD|TV|SAT|PDTV| - Rips)

ara1205
 

dimonpa

Гроза морей

Пост 22-Окт-2012 16:38 (спустя 43 минуты)

[Q] 

[Профиль]  [ЛС] 

cruzzel

Корсар

Пост 22-Окт-2012 19:36 (спустя 2 часа 57 минут)

[Q] 


_________________
NEWSLOL.NET
[Профиль]  [ЛС] 

R_O_Z_A

Морской Волк

Пост 23-Окт-2012 01:30 (спустя 5 часов)

[Q] 

Спасибо!
[Профиль]  [ЛС] 

SerJ-AC

Морской Волк

Пост 23-Окт-2012 19:37 (спустя 18 часов)

[Q] 

качаю
[Профиль]  [ЛС] 

anonymoys

Гроза морей

901

Пост 23-Окт-2012 19:41 (спустя 3 минуты)

[Q] 

[Профиль]  [ЛС] 
Показать сообщения:    
Ответить на тему

Текущее время: Сегодня 21:25

Часовой пояс: GMT + 4



Вы не можете начинать темы
Вы не можете отвечать на сообщения
Вы не можете редактировать свои сообщения
Вы не можете удалять свои сообщения
Вы не можете голосовать в опросах
Вы не можете прикреплять файлы к сообщениям
Вы не можете скачивать файлы

▼ Вниз