ML
     
  Уважаемый Гость!
Вы можете поддержать проект и зарегистрироваться у наших партнеров - онлайн-стратегия MyLands. При регистрации в игре Вы получите код, который сможете активировать после регистрации на pirat.ca и получить 1000 дублонов.

Ваш код:
2fd4e750dd89cae3a36ea360f2b345ccfeb562d3
 
     

Сказ о розовом зайце (Фархат Шарипов) [2010 г., драма, DVDRip]

Ответить на тему
 
Автор
Сообщение

Пост 26-Окт-2012 23:22

[Q] 

sandman1973

Гроза морей

-Сказ о розовом зайце-- Производство: Казахстан, «Казахфильм»
Режиссер: Фархат Шарипов
Жанр: драма
Год выпуска: 2010 г.
Продолжительность: 01:45:00
Российская премьера: 26 августа 2010
В ролях: Ануар Нурпеисов, Максим Акбаров, Карлыгаш Мухамеджанова, Фархад Абдраимов, Бахтияр Кожа, Мурат Бисенбин, Саят Исембаев, Мирас Турысбай, Санжар Мадиев, Антон Фот-Описание: Провинциальный парень Ерлан, студент 3 курса одного из алматинских ВУЗов (КазГАСА) приехал в город в надежде добиться успеха в будущем. Среда «золотой молодежи», куда он попадает, оказалось непростой. У неё свои законы, собственные порядки, и для того, чтобы сохранить свои моральные принципы, многое придется заново пережить и испытать. Он встречает парня по имени Локо, который предлагает ему выгодное предложение для него и для себя — отсидеть чужой срок. Ерлан отказывается, но помогает ему найти такого человека.-
Качество видео: DVDRip
Формат видео: AVI
Видео кодек: XviD
Аудио кодек: AC3
Видео: 704х400, 2382 Кбит/сек, 25,000 кадров/сек
Аудио: 384 Кбит/сек, 2 канала, 48,0 КГц
Общее
Полное имя : E:\Загрузки\Skaz.O.Rozovom.Zayce.2010.DVDRip.XviD.avi
Формат : AVI
Формат/Информация : Audio Video Interleave
Профиль формата : OpenDML
Размер файла : 2,05 Гбайт
Продолжительность : 1 ч. 45 м.
Общий поток : 2779 Кбит/сек
Название фильма : Сказ о розовом зайце (2010)
Программа кодирования : VirtualDubModRus 1.5.10.2 (build 2542/release)
Видео
Идентификатор : 0
Формат : MPEG-4 Visual
Профиль формата : Advanced [email protected]
Параметр BVOP формата : 2
Параметр QPel формата : Нет
Параметр GMC формата : Без точки перехода
Параметр матрицы формата : Выборочная
Идентификатор кодека : XVID
Идентификатор кодека/Подсказка : XviD
Продолжительность : 1 ч. 45 м.
Битрейт : 2382 Кбит/сек
Ширина : 704 пикселя
Высота : 400 пикселей
Соотношение сторон : 16:9
Частота кадров : 25,000 кадров/сек
Цветовое пространство : YUV
Субдискретизация насыщенности : 4:2:0
Битовая глубина : 8 бит
Тип развёртки : Прогрессивная
Метод сжатия : С потерями
Бит/(Пиксели*Кадры) : 0.338
Размер потока : 1,76 Гбайт (86%)
Библиотека кодирования : XviD 64
Аудио
Идентификатор : 1
Формат : AC-3
Формат/Информация : Audio Coding 3
Расширение режима : CM (complete main)
Параметр Endianness формата : Big
Идентификатор кодека : 2000
Продолжительность : 1 ч. 45 м.
Вид битрейта : Постоянный
Битрейт : 384 Кбит/сек
Каналы : 2 канала
Расположение каналов : Front: L R
Частота : 48,0 КГц
Битовая глубина : 16 бит
Метод сжатия : С потерями
Размер потока : 291 Мбайт (14%)
Выравнивание : Разделение по промежуткам
Продолжительность промежутка : 40 мс. (1,00 видеокадр)
Время предзагрузки промежутка : 500 мс.
Download / Скачать

Хотите скачать бесплатно? Зарегистрируйтесь на сайте (ссылка на регистрацию). Pirat.ca - самый быстрый торрент трекер в рунете!

Как скачивать  ·   Что такое торрент  ·   Рейтинг и ограничения

Пост 27-Окт-2012 01:12 (спустя 1 час 50 минут)

Топик был перенесен из форума Наше кино (Трюм) в форум Российские фильмы

erchine
 

sandman1973 ®

Гроза морей

2129

Пост 28-Окт-2012 12:34 (спустя 1 день 13 часов)

[Q] 

Чоткий фильм!

_________________



Последний раз редактировалось: sandman1973 (2012-12-31 04:03), всего редактировалось 1 раз
[Профиль]  [ЛС] 

ALF15

Лоцман

Пост 28-Окт-2012 17:24 (спустя 4 часа)

[Q] 

Отличный фильмец!
[Профиль]  [ЛС] 

evilelf

Лоцман

Пост 21-Дек-2012 19:05 (спустя 1 месяц 24 дня)

[Q] 

ДАйте скорости !
[Профиль]  [ЛС] 

sliwi657

Морской Волк

Пост 24-Мар-2013 10:14 (спустя 3 месяца 2 дня)

[Q] 


_________________
etozheandryufka
[Профиль]  [ЛС] 

Nemetz

Корсар

Пост 11-Апр-2013 06:36 (спустя 17 дней)

[Q] 

Отличный фильм! Казахи умеют нормальное кино снимать)
[Профиль]  [ЛС] 
Показать сообщения:    
Ответить на тему

Текущее время: Сегодня 14:12

Часовой пояс: GMT + 4



Вы не можете начинать темы
Вы не можете отвечать на сообщения
Вы не можете редактировать свои сообщения
Вы не можете удалять свои сообщения
Вы не можете голосовать в опросах
Вы не можете прикреплять файлы к сообщениям
Вы не можете скачивать файлы

▼ Вниз