ML
     
  Уважаемый Гость!
Вы можете поддержать проект и зарегистрироваться у наших партнеров - онлайн-стратегия MyLands. При регистрации в игре Вы получите код, который сможете активировать после регистрации на pirat.ca и получить 1000 дублонов.

Ваш код:
2fd4e750dd89cae3a36ea360f2b345ccfeb562d3
 
     

Менялы (Георгий Шенгелия) [1992 г., комедия, DVDRip]

Ответить на тему
 
Автор
Сообщение

Пост 31-Окт-2012 10:45

[Q] 

sandman1973

Гроза морей

-Менялы-- Производство: Россия, США
Режиссер: Георгий Шенгелия
Жанр: комедия
Год выпуска: 1992 г.
Продолжительность: 01:28:00
Российская премьера: 13 ноября 2001
Дата выхода DVD: 18 сентября 2008
В ролях: Владимир Ильин, Андрей Пономарев, Вадим Захарченко, Юрий Горин, Валентина Теличкина, Оксана Мысина, Ренат Давлетьяров, Наиль Идрисов, Олег Дурыгин, Алла Мещерякова-Описание: Остроумная, остросюжетная комедия рассказывает об «авантюре времен денежной реформы» 1961 года, когда «весь многомиллионный советский народ» запустил в космос Гагарина, а иностранцы, «не раздумывая, меняли один американский доллар на 65 советских копеек».
«Всего лишь 20 лет отделяли тогда наш народ от светлой эры всего человечества», а два человека тем временем, по заданию подпольного миллионера, сомневающегося в отмене денег при коммунизме, занимались тем, что меняли деньги на медные монеты. Почему? Попробуйте догадаться сами, а не догадаетесь — посмотрите.-
Качество видео: DVDRip
Формат видео: AVI
Видео кодек: XviD
Аудио кодек: AC3
Видео: 688х528, 1532 Кбит/сек, 25,000 кадров/сек
Аудио: 192 Кбит/сек, 2 канала, 48,0 КГц

Общее
Полное имя : E:\Загрузки\Menyali.1992.XviD.DVDRip.avi
Формат : AVI
Формат/Информация : Audio Video Interleave
Размер файла : 1,07 Гбайт
Продолжительность : 1 ч. 28 м.
Общий поток : 1734 Кбит/сек
Программа кодирования : VirtualDubMod 1.5.10.2 (build 2540/release)
Библиотека кодирования : VirtualDubMod build 2540/release
Видео
Идентификатор : 0
Формат : MPEG-4 Visual
Профиль формата : Advanced [email protected]
Параметр BVOP формата : 1
Параметр QPel формата : Нет
Параметр GMC формата : Без точки перехода
Параметр матрицы формата : Default (MPEG)
Идентификатор кодека : XVID
Идентификатор кодека/Подсказка : XviD
Продолжительность : 1 ч. 28 м.
Битрейт : 1532 Кбит/сек
Ширина : 688 пикселей
Высота : 528 пикселей
Соотношение сторон : 4:3
Частота кадров : 25,000 кадров/сек
Цветовое пространство : YUV
Субдискретизация насыщенности : 4:2:0
Битовая глубина : 8 бит
Тип развёртки : Прогрессивная
Метод сжатия : С потерями
Бит/(Пиксели*Кадры) : 0.169
Размер потока : 969 Мбайт (88%)
Библиотека кодирования : XviD 1.2.1 (UTC 2008-12-04)
Аудио
Идентификатор : 1
Формат : AC-3
Формат/Информация : Audio Coding 3
Расширение режима : CM (complete main)
Параметр Endianness формата : Big
Идентификатор кодека : 2000
Продолжительность : 1 ч. 28 м.
Вид битрейта : Постоянный
Битрейт : 192 Кбит/сек
Каналы : 2 канала
Расположение каналов : Front: L R
Частота : 48,0 КГц
Битовая глубина : 16 бит
Метод сжатия : С потерями
Размер потока : 121 Мбайт (11%)
Выравнивание : Разделение по промежуткам
Продолжительность промежутка : 40 мс. (1,00 видеокадр)
Время предзагрузки промежутка : 500 мс.
- В фильме звучат отрывки известных стихотворений: монолог Гамлета «быть или не быть…» в переводе Бориса Пастернака и «Томлинсон» Киплинга в переводе Ады Оношкович-Яцыны
- Фактическая основа фильма ошибочна. Вес медных монет в СССР в граммах соответствовал номиналу монет: 1 коп. — 1 г, 2 коп. — 2 г и так далее. Потому сумма, полученная героями для обмена (60 тыс. руб.) после обмена на медную мелочь весила бы 6 тонн (60000 × 0,1 кг = 6000 кг), что явно превышает грузоподъемность легкового автомобиля. Только в доме фиктивного слепого, как следут из фильма, герои получили меди на сумму 23 тыс. руб., то есть 2,3 тонны монет. Таким образом, схема аферы, предложенная авторами фильма, практически трудно осуществима. Именно поэтому реформа и допускала обмен медных денег в пропорции 1:1.
- Основная часть городских съемок проходила на улицах Евпатории и Симферополя.
- В фильме снимались автомобили Horch-853 и Willys MB.
- Бабаскин называет свою неудачу с Зоей «карибским кризисом», но Карибский кризис случился в 1962 г.
Download / Скачать

Хотите скачать бесплатно? Зарегистрируйтесь на сайте (ссылка на регистрацию). Pirat.ca - самый быстрый торрент трекер в рунете!

Как скачивать  ·   Что такое торрент  ·   Рейтинг и ограничения

hohol541

Корсар

Пост 29-Дек-2012 10:43 (спустя 1 месяц 28 дней)

[Q] 

Новое поколение не поймёт о чём фильм.
[Профиль]  [ЛС] 

and48

Корсар

169

Пост 02-Янв-2013 00:28 (спустя 3 дня)

[Q] 

Отличный фильм, советую посмотреть!
[Профиль]  [ЛС] 

UncleFather

Легенда

Пост 23-Мар-2013 16:11 (спустя 2 месяца 21 день)

[Q] 


_________________
Одни боялись Пью, другие - Билли Бонса, а меня... меня боялся сам Флинт
[Профиль]  [ЛС] 
Показать сообщения:    
Ответить на тему

Текущее время: Сегодня 14:09

Часовой пояс: GMT + 4



Вы не можете начинать темы
Вы не можете отвечать на сообщения
Вы не можете редактировать свои сообщения
Вы не можете удалять свои сообщения
Вы не можете голосовать в опросах
Вы не можете прикреплять файлы к сообщениям
Вы не можете скачивать файлы

▼ Вниз