ML
     
  Уважаемый Гость!
Вы можете поддержать проект и зарегистрироваться у наших партнеров - онлайн-стратегия MyLands. При регистрации в игре Вы получите код, который сможете активировать после регистрации на pirat.ca и получить 1000 дублонов.

Ваш код:
8b29d0f8cd61fe457e59e7df0aa1fab41a2b88b9
 
     

Шхера-18 (Николай Дрейден) [2011 г., боевик, криминал, DVDRip]

Ответить на тему
 
Автор
Сообщение

Пост 02-Ноя-2012 10:14

[Q] 

AGKRus36

-Шхера-18-- Производство: Россия / Триикс Медиа
Режиссер: Николай Дрейден
Жанр: боевик, криминал
Год выпуска: 2011 г.
Продолжительность: 01:28:07
Российская премьера: 3 июля 2011
В ролях: Тимур Ефременков, Михаил Разумовский, Данила Козловский, Елена Николаева (II), Владимир Шагин, Алексей Фокин, Анна Астраханцева, Сергей Русскин, Федор Лавров, Александр Завьялов, Евгений Иванов, Карина Миронова, Вячеслав Гумеров, Александр Павельев-Описание: Ветеран отряда спецназа Евгений Сорматов едет на живописное озеро в Карелии. С собой он везет последнее письмо товарища — Андрея Егорова, погибшего несколько лет назад, и орден Героя России, которым того наградили посмертно. Там, в тихом уголке на одной из шхер, в рыбачьем безлюдном поселке живут отец и сестра Андрея. Сорматов находит обветшалую гостиницу, сторожем которой и оказывается отец Егорова. Евгений рассказывает родным товарища про героическую гибель Андрея, передает им письмо и звезду, после чего немедленно собирается в обратную дорогу, но неожиданно начинается жуткий шторм. Выбора нет: Евгений возвращается на шхеру. А тем временем сестра Егорова Татьяна находит среди вещей постояльцев коробки с оружием. Вскоре все трое становятся заложниками преступников-контрабандистов. Теперь бывшему спецназовцу придется вспомнить о своем боевом прошлом…-Сэмпл КиноПоиск
Качество видео: DVDRip
Формат видео: AVI
Видео кодек: XviD
Аудио кодек: AC3
Видео: 720x384, 2050 kbps, 25.000 fps
Аудио: AC3, 160 kb/s (2 ch), 48.0 KHz
Cубтитры: отсутствуют
Complete name : D:\Фильмы\Шхера-18\Shhera.18.2011.O.DVDRip.avi
Format : AVI
Format/Info : Audio Video Interleave
File size : 1.37 GiB
Duration : 1h 28mn
Overall bit rate : 2 221 Kbps
Genre : Action | Crime
Writing application : VirtualDubMod 1.5.10.2 (build 2540/release)
Original source form/Name : Movie
Video #0
ID : 0
Format : MPEG-4 Visual
Format profile : Advanced [email protected]
Format settings, BVOP : Yes
Format settings, QPel : No
Format settings, GMC : No warppoints
Format settings, Matrix : Custom
Codec ID : XVID
Codec ID/Hint : XviD
Duration : 1h 28mn
Bit rate : 2 051 Kbps
Width : 720 pixels
Height : 384 pixels
Display aspect ratio : 1.875
Frame rate : 25.000 fps
Resolution : 8 bits
Colorimetry : 4:2:0
Scan type : Progressive
Bits/(Pixel*Frame) : 0.297
Stream size : 1.26 GiB (92%)
Writing library : XviD 1.2.1 (UTC 2008-12-04)
Audio #1
ID : 1
Format : AC-3
Format/Info : Audio Coding 3
Codec ID : 2000
Duration : 1h 28mn
Bit rate mode : Constant
Bit rate : 160 Kbps
Channel(s) : 2 channels
Channel positions : L R
Sampling rate : 48.0 KHz
Stream size : 101 MiB (7%)
Alignment : Split accross interleaves
Interleave, duration : 40 ms (1.00 video frame)
Interleave, preload duration : 500 ms
Download / Скачать

Хотите скачать бесплатно? Зарегистрируйтесь на сайте (ссылка на регистрацию). Pirat.ca - самый быстрый торрент трекер в рунете!

Как скачивать  ·   Что такое торрент  ·   Рейтинг и ограничения

Пост 02-Ноя-2012 12:27 (спустя 2 часа 12 минут)

Топик был перенесен из форума Наше кино (Трюм) в форум Российские фильмы

erchine
 
Показать сообщения:    
Ответить на тему

Текущее время: Сегодня 21:26

Часовой пояс: GMT + 4



Вы не можете начинать темы
Вы не можете отвечать на сообщения
Вы не можете редактировать свои сообщения
Вы не можете удалять свои сообщения
Вы не можете голосовать в опросах
Вы не можете прикреплять файлы к сообщениям
Вы не можете скачивать файлы

▼ Вниз