ML
     
  Уважаемый Гость!
Вы можете поддержать проект и зарегистрироваться у наших партнеров - онлайн-стратегия MyLands. При регистрации в игре Вы получите код, который сможете активировать после регистрации на pirat.ca и получить 1000 дублонов.

Ваш код:
4855957e17f50c5c1236a0f8c4492b2b0bba00a0
 
     

Люблю, потому что люблю (Анатолий Матешко) [2012 г., Мелодрама, комедия, детектив, SATRip]

Ответить на тему
 
Автор
Сообщение

Пост 05-Ноя-2012 13:47

[Q] 

ara1205

-Люблю, потому что люблю-- Производство: Украина, Новая студия, Телеканал СТБ
Режиссер: Анатолий Матешко
Жанр: Мелодрама, комедия, детектив
Год выпуска: 2012 г.
Продолжительность: 01:31:31
Российская премьера: 4 ноября 2012-В ролях: Ирина Пегова, Даниил Спиваковский, Заза Чантурия, Алена Лавренюк, Сергей Калантай-Описание: На базу отдыха «Радуга» приезжает бухгалтер-ревизор Петр, правильный, честный, принципиальный. Поселиться на базе он отказывается, ведь ревизия должна быть независимой, как и сам ревизор, особенно в жилищном вопросе.
Ревизия выявляет жесточайшие нарушения. Но главный бухгалтер и директор базы - честнейшие люди и всю жизнь вели дела базы идеально. Откуда взяться таким нарушениям? Поэтому когда Петр понимает, что его ревизия – повод уничтожить базу, а все документы были умышленно подменены, он решает разобраться, ведь на кону стоит его профессиональная репутация. Удастся ли ему спасти базу «Радуга» от злоумышленников?-Сэмпл-Качество видео: SATRip
Формат видео: AVI
Видео кодек: XviD
Аудио кодек: MP3
Видео: 720x400, 25 fps, XviD, 2045 kbps, 0.284 bit/pixel
Аудио: 48 kHz, MPEG Layer 3, 2 ch, 192 kbps
Cубтитры: отсутствуют-
Общее
Полное имя : C:\Users\Ромик\Pictures\Посмотреть\Люблю, потому что люблю\Ljublju.potomu.chto.ljublju.2012.XviD.SATRip.[pirat.ca].avi
Формат : AVI
Формат/Информация : Audio Video Interleave
Размер файла : 1,44 Гбайт
Продолжительность : 1 ч. 31 м.
Общий поток : 2247 Кбит/сек
Программа кодирования : VirtualDubModRus 1.5.10.2 (build 2542/release)
Библиотека кодирования : VirtualDubMod build 2542/release
Видео
Идентификатор : 0
Формат : MPEG-4 Visual
Профиль формата : Advanced [email protected]
Параметр BVOP формата : 1
Параметр QPel формата : Нет
Параметр GMC формата : Без точки перехода
Параметр матрицы формата : Default (H.263)
Идентификатор кодека : XVID
Идентификатор кодека/Подсказка : XviD
Продолжительность : 1 ч. 31 м.
Битрейт : 2045 Кбит/сек
Ширина : 720 пикселей
Высота : 400 пикселей
Соотношение сторон : 16:9
Частота кадров : 25,000 кадров/сек
Цветовое пространство : YUV
Субдискретизация насыщенности : 4:2:0
Битовая глубина : 8 бит
Тип развёртки : Прогрессивная
Метод сжатия : С потерями
Бит/(Пиксели*Кадры) : 0.284
Размер потока : 1,31 Гбайт (91%)
Библиотека кодирования : XviD 1.2.1 (UTC 2008-12-04)
Аудио
Идентификатор : 1
Формат : MPEG Audio
Версия формата : Version 1
Профиль формата : Layer 3
Режим : Joint stereo
Расширение режима : MS Stereo
Идентификатор кодека : 55
Идентификатор кодека/Подсказка : MP3
Продолжительность : 1 ч. 31 м.
Вид битрейта : Постоянный
Битрейт : 192 Кбит/сек
Каналы : 2 канала
Частота : 48,0 КГц
Метод сжатия : С потерями
Размер потока : 126 Мбайт (9%)
Выравнивание : Соединение по промежуткам
Продолжительность промежутка : 40 мс. (1,00 видеокадр)
Время предзагрузки промежутка : 504 мс.
Библиотека кодирования : LAME3.98r
Настройки программы : -m j -V 4 -q 2 -lowpass 18.6 -b 192
-
-
Download / Скачать

Хотите скачать бесплатно? Зарегистрируйтесь на сайте (ссылка на регистрацию). Pirat.ca - самый быстрый торрент трекер в рунете!

Как скачивать  ·   Что такое торрент  ·   Рейтинг и ограничения

Пост 05-Ноя-2012 13:59 (спустя 12 минут)

Топик был перенесен из форума Наше кино (Трюм) в форум Новинки (HD|DVD|BD|TV|SAT|PDTV| - Rips)

erchine
 

Jigsaw

Пост 05-Ноя-2012 14:37 (спустя 49 минут)

[Q] 

 
Показать сообщения:    
Ответить на тему

Текущее время: Сегодня 06:14

Часовой пояс: GMT + 4



Вы не можете начинать темы
Вы не можете отвечать на сообщения
Вы не можете редактировать свои сообщения
Вы не можете удалять свои сообщения
Вы не можете голосовать в опросах
Вы не можете прикреплять файлы к сообщениям
Вы не можете скачивать файлы

▼ Вниз