ML
     
  Уважаемый Гость!
Вы можете поддержать проект и зарегистрироваться у наших партнеров - онлайн-стратегия MyLands. При регистрации в игре Вы получите код, который сможете активировать после регистрации на pirat.ca и получить 1000 дублонов.

Ваш код:
dbd0d701284cde74a1f34d06ce20b7bc75a73e75
 
     

ДухLess (Роман Прыгунов) [2012 г., драма, DVDRip]

Страницы :  1, 2, 3, 4, 5  След.

Ответить на тему
 
Автор
Сообщение

Пост 05-Ноя-2012 14:58

[Q] 

Amethyst

-ДухLess-- Год выпуска: 2012 г.
Российская премьера: 4 октября 2012, «UPI»
Дата выхода DVD: 8 ноября 2012, «Мистерия Звука»
Дата выхода Blu-Ray: 8 ноября 2012, «Мистерия Звука»
Производство: Россия, Арт Пикчерс Студия / Кинослово
Жанр: драма
Продолжительность: 01:41:12
Перевод: Не требуется [Лицензия]
Режиссер: Роман Прыгунов
В ролях: Данила Козловский, Артем Михалков, Михаил Ефремов, Мария Андреева, Артур Смольянинов, Мария Кожевникова, Сергей Белоголовцев, Игорь Войнаровский, Михаил Люлинецкий, Михаил Мухтасипов

Описание: Главный герой фильма — 29-летний топ-менеджер крупного международного банка по имени Макс. Он уверен, что жизнь удалась, ведь у него есть то, о чём многие не могут даже и мечтать: дорогая машина, пентхаус и вечеринки. Свою жизнь Максим тратит на зарабатывание денег, а деньги — на ночные клубы, шикарных девушек, кокаин и прочие атрибуты, так называемой, гламурной жизни. Но в какой-то момент к герою приходит осознание того, что с его жизнью что-то не так. И его мир начинает рушиться, подобно карточному домику. В картине говорится о переоценке себя и жизни вокруг, о преодолении внутреннего кризиса.
Сэмпл IMDB КиноПоиск
--Качество видео: DVDRip
Формат видео: AVI
Видео кодек: XviD
Аудио кодек: AC3
Видео: 720x304, 25.000 fps, 1482 Kbps
Аудио: 48.0 KHz, 6 ch, 448 Kbps Rus
Общее
Полное имя : D:\Торенты\Duhless.2012.DVDRip.avi
Формат : AVI
Формат/Информация : Audio Video Interleave
Размер файла : 1,37 Гбайт
Продолжительность : 1 ч. 41 м.
Общий поток : 1940 Кбит/сек
Название фильма : D
Программа кодирования : V
Видео
Идентификатор : 0
Формат : MPEG-4 Visual
Профиль формата : Advanced [email protected]
Параметр BVOP формата : 2
Параметр QPel формата : Нет
Параметр GMC формата : Без точки перехода
Параметр матрицы формата : Default (MPEG)
Идентификатор кодека : XVID
Идентификатор кодека/Подсказка : XviD
Продолжительность : 1 ч. 41 м.
Битрейт : 1482 Кбит/сек
Ширина : 720 пикселей
Высота : 304 пикселя
Соотношение сторон : 2,35:1
Частота кадров : 25,000 кадров/сек
Цветовое пространство : YUV
Субдискретизация насыщенности : 4:2:0
Битовая глубина : 8 бит
Тип развёртки : Прогрессивная
Метод сжатия : С потерями
Бит/(Пиксели*Кадры) : 0.271
Размер потока : 1,05 Гбайт (76%)
Библиотека кодирования : XviD 1.2.1 (UTC 2008-12-04)
Аудио
Идентификатор : 1
Формат : AC-3
Формат/Информация : Audio Coding 3
Расширение режима : CM (complete main)
Параметр Endianness формата : Big
Идентификатор кодека : 2000
Продолжительность : 1 ч. 41 м.
Вид битрейта : Постоянный
Битрейт : 448 Кбит/сек
Каналы : 6 каналов
Расположение каналов : Front: L C R, Side: L R, LFE
Частота : 48,0 КГц
Битовая глубина : 16 бит
Метод сжатия : С потерями
Размер потока : 324 Мбайт (23%)
Выравнивание : Разделение по промежуткам
Продолжительность промежутка : 40 мс. (1,00 видеокадр)
Время предзагрузки промежутка : 500 мс.
-
--
Download / Скачать

Хотите скачать бесплатно? Зарегистрируйтесь на сайте (ссылка на регистрацию). Pirat.ca - самый быстрый торрент трекер в рунете!

Как скачивать  ·   Что такое торрент  ·   Рейтинг и ограничения

Gazeman

Морской Волк

Пост 05-Ноя-2012 16:28 (спустя 1 час 30 минут)

[Q] 


_________________
Не секрет, что "чистая" система - это стабильная система.Всегда используйте ТОЛЬКО чистые оригинальные системы Microsoft Windows!
Лишь на свободе жить любви дано.
[Профиль]  [ЛС] 

alexcmex

Лоцман

Пост 05-Ноя-2012 16:29 (спустя 28 секунд)

[Q] 

Наконец то!Дождался!Спасибо!
[Профиль]  [ЛС] 

-Lemon-

Шкипер

Пост 05-Ноя-2012 16:57 (спустя 28 минут)

[Q] 

255528Наконец то!Дождался!Спасибо!
+1
[Профиль]  [ЛС] 

Psyber

Корсар

Пост 05-Ноя-2012 17:19 (спустя 22 минуты)

[Q] 

Книга хорошая была) Посмотрим как фильм.....
[Профиль]  [ЛС] 

infiniti-r

Корсар

Пост 05-Ноя-2012 17:30 (спустя 10 минут)

[Q] 

[Профиль]  [ЛС] 

Тёркин

Морской Волк

Пост 05-Ноя-2012 17:51 (спустя 21 минута)

[Q] 

[Профиль]  [ЛС] 

cruzzel

Корсар

Пост 05-Ноя-2012 18:16 (спустя 25 минут)

[Q] 


_________________
NEWSLOL.NET
[Профиль]  [ЛС] 

Borka82

Морской Волк

Пост 05-Ноя-2012 19:16 (спустя 59 минут)

[Q] 

[Профиль]  [ЛС] 

DHARMEEDONT

Флибустьер

Пост 05-Ноя-2012 19:29 (спустя 13 минут)

[Q] 

[Профиль]  [ЛС] 

dmsushko

Корсар

171

Пост 05-Ноя-2012 20:06 (спустя 37 минут)

[Q] 


_________________

[Профиль]  [ЛС] 

dimonpa

Гроза морей

Пост 05-Ноя-2012 20:57 (спустя 50 минут)

[Q] 

[Профиль]  [ЛС] 

SKIF797

Морской Волк

Пост 05-Ноя-2012 21:05 (спустя 8 минут)

[Q] 

[Профиль]  [ЛС] 

vasi

Корсар

Пост 05-Ноя-2012 21:19 (спустя 13 минут)

[Q] 

[Профиль]  [ЛС] 

Jell

Корсар

Пост 05-Ноя-2012 22:44 (спустя 1 час 24 минуты)

[Q] 

[Профиль]  [ЛС] 

cssergey

Корсар

Пост 05-Ноя-2012 23:15 (спустя 31 минута)

[Q] 

[Профиль]  [ЛС] 

xxxLOGICxxx

Корсар

Пост 06-Ноя-2012 01:25 (спустя 2 часа 10 минут)

[Q] 

[Профиль]  [ЛС] 

StatusQuo

Шкипер

Пост 06-Ноя-2012 03:56 (спустя 2 часа 30 минут)

[Q] 

Фильм на удивление мне понравился)

_________________
[Профиль]  [ЛС] 

temkaaa_tem

Лоцман

Пост 06-Ноя-2012 11:01 (спустя 7 часов)

[Q] 

[Профиль]  [ЛС] 

badi74

Корсар

Пост 06-Ноя-2012 12:50 (спустя 1 час 48 минут)

[Q] 

[Профиль]  [ЛС] 

golaid

Штурман

Пост 06-Ноя-2012 14:21 (спустя 1 час 30 минут)

[Q] 

[Профиль]  [ЛС] 

Madarashi

Корсар

Пост 06-Ноя-2012 17:52 (спустя 3 часа)

[Q] 

Спасибо!
[Профиль]  [ЛС] 

Alexe10

Гроза морей

36

Пост 06-Ноя-2012 18:27 (спустя 34 минуты)

[Q] 

[Профиль]  [ЛС] 

Hugin

Морской Волк

163

Пост 06-Ноя-2012 19:17 (спустя 50 минут)

[Q] 

Спасибо!
[Профиль]  [ЛС] 

ALF15

Лоцман

Пост 06-Ноя-2012 20:08 (спустя 51 минута)

[Q] 

Отличный фильм!
[Профиль]  [ЛС] 

Змей

Штурман

439

Пост 06-Ноя-2012 21:02 (спустя 53 минуты)

[Q] 

интересен

_________________
Процессор Intel LGA1155 Core i7-2600K (3.4/8Mb)
Память DDR3 16384Mb 1866MHz Corsair
Кулер Cooler Master V6 GT
Мать MSI Z77A-GD55
Рожденный ползать везде пролезет!
[Профиль]  [ЛС] 

Амангельды

35490

Пост 06-Ноя-2012 21:36 (спустя 34 минуты)

[Q] 

ВЕЛИКОЛЕПНО!!!
В движении
ДухLess
...

_________________

Товарищ, верь, пройдет она,
Так называемая гласность.
И вот тогда госбезопасность
Припомнит ваши имена
Раздачи от Амангельды - ТЫНЦ
[Профиль]  [ЛС] 

dp

Корсар

Пост 06-Ноя-2012 22:07 (спустя 30 минут)

[Q] 

255959Фильм на удивление мне понравился)
+1

_________________
Мог стать отличным пианистом, а стал поскудным программистом
[Профиль]  [ЛС] 

Igrik_the_best

Лоцман

Пост 06-Ноя-2012 23:15 (спустя 1 час 7 минут)

[Q] 

Спасибо большое автору! Давно этот фильм ждал
[Профиль]  [ЛС] 

strikeF

Корсар

Пост 06-Ноя-2012 23:20 (спустя 5 минут)

[Q] 

[Профиль]  [ЛС] 
Показать сообщения:    
Ответить на тему

Текущее время: Сегодня 18:29

Часовой пояс: GMT + 4



Вы не можете начинать темы
Вы не можете отвечать на сообщения
Вы не можете редактировать свои сообщения
Вы не можете удалять свои сообщения
Вы не можете голосовать в опросах
Вы не можете прикреплять файлы к сообщениям
Вы не можете скачивать файлы

▼ Вниз