ML
     
  Уважаемый Гость!
Вы можете поддержать проект и зарегистрироваться у наших партнеров - онлайн-стратегия MyLands. При регистрации в игре Вы получите код, который сможете активировать после регистрации на pirat.ca и получить 1000 дублонов.

Ваш код:
1a5b0a965618b2c406d4279ec9924ee6282c60cf
 
     

Поцелуй в голову (Георгий Гаврилов) [2012 г., мелодрама, криминал, DVDRip] [Лицензия]

Ответить на тему
 
Автор
Сообщение

Пост 16-Ноя-2012 18:56

[Q] 

AGKRus36

-Поцелуй в голову-«Решение проблем... сближает...»- Производство: Россия / Мостелефильм
Режиссер: Георгий Гаврилов
Жанр: мелодрама, криминал
Год выпуска: 2012 г.
Продолжительность: 01:45:34
Дата выхода DVD: 15 ноября 2012, «Русское счастье»
В ролях: Денис Рожков, Наталья Рудова, Юрий Осипов, Андрей Тартаков, Александр Тютин, Владислав Дунаев, Сергей Шарифуллин, Александр Тараньжин, Александр Арсентьев, Олег Кныш, Максим Артамонов, Ксения Березина-Описание: Егор, в прошлом чемпион по ралли, работает в службе «трезвый водитель», развозит по домам подвыпивших клиентов. Когда-то он и сам садился пьяным за руль, что однажды привело к трагедии. В ДТП погибла его жена… Судьба сталкивает Егора с Дашей и когда девушке грозит опасность, он, не раздумывая, кидается ей на помощь. Даша оказывается вовлеченной в бандитские разборки, в которых участвует и полицейский — «оборотень» Морозов. Даша помогла своему любимому сбежать из тюрьмы и ради него выкрала деньги из сейфа у беспринципного чиновника-вора. Но Султанов решает убить Дашу, чтобы не делиться с ней деньгами…-Сэмпл КиноПоиск
Качество видео: DVDRip (Лицензия)
Формат видео: AVI
Видео кодек: XviD
Аудио кодек: AC3
Видео: 720x384 (1.88:1), 25 fps, XviD build 50 ~1694 kbps avg, 0.25 bit/pixel
Аудио: 48 kHz, AC3 Dolby Digital, 3/2 (L,C,R,l,r) + LFE ch, ~256 kbps
Cубтитры: отсутствуют
D:\Фильмы\Поцелуй в голову\Poceluj.v.golovu.2012.O.DVDRip.avi
General
Complete name : D:\Фильмы\Поцелуй в голову\Poceluj.v.golovu.2012.O.DVDRip.avi
Format : AVI
Format/Info : Audio Video Interleave
File size : 1.45 GiB
Duration : 1h 45mn
Overall bit rate : 1 960 Kbps
Writing application : VirtualDubModRus 1.5.10.2 (build 2542/release)
Original source form/Name : Movie Trailer
Video #0
ID : 0
Format : MPEG-4 Visual
Format profile : Advanced [email protected]
Format settings, BVOP : Yes
Format settings, QPel : No
Format settings, GMC : No warppoints
Format settings, Matrix : Custom
Codec ID : XVID
Codec ID/Hint : XviD
Duration : 1h 45mn
Bit rate : 1 694 Kbps
Width : 720 pixels
Height : 384 pixels
Display aspect ratio : 1.875
Frame rate : 25.000 fps
Resolution : 8 bits
Colorimetry : 4:2:0
Scan type : Progressive
Bits/(Pixel*Frame) : 0.245
Stream size : 1.25 GiB (86%)
Writing library : XviD 1.2.1 (UTC 2008-12-04)
Audio #1
ID : 1
Format : AC-3
Format/Info : Audio Coding 3
Codec ID : 2000
Duration : 1h 45mn
Bit rate mode : Constant
Bit rate : 256 Kbps
Channel(s) : 6 channels
Channel positions : Front: L C R, Surround: L R, LFE
Sampling rate : 48.0 KHz
Stream size : 193 MiB (13%)
Alignment : Split accross interleaves
Interleave, duration : 40 ms (1.00 video frame)
Interleave, preload duration : 500 ms
Download / Скачать

Хотите скачать бесплатно? Зарегистрируйтесь на сайте (ссылка на регистрацию). Pirat.ca - самый быстрый торрент трекер в рунете!

Как скачивать  ·   Что такое торрент  ·   Рейтинг и ограничения

Пост 16-Ноя-2012 19:44 (спустя 47 минут)

Топик был перенесен из форума Наше кино (Трюм) в форум Новинки (HD|DVD|BD|TV|SAT|PDTV| - Rips)

erchine
 

maaximkaa

Корсар

Пост 16-Ноя-2012 21:43 (спустя 2 часа 47 минут)

[Q] 

помогу с раздачей
[Профиль]  [ЛС] 

AGKRus36 ®

37905

Пост 16-Ноя-2012 22:47 (спустя 1 час 3 минуты)

[Q] 

263339помогу с раздачей

_________________
Мои раздачи
[Профиль]  [ЛС] 

RoDJeR2301

Штурман

Пост 17-Ноя-2012 13:02 (спустя 14 часов)

[Q] 

[Профиль]  [ЛС] 

veter13

Корсар

Пост 17-Ноя-2012 14:11 (спустя 1 час 8 минут)

[Q] 

aa
[Профиль]  [ЛС] 

DHARMEEDONT

Флибустьер

Пост 17-Ноя-2012 14:26 (спустя 15 минут)

[Q] 

[Профиль]  [ЛС] 

azubrilov78

Корсар

62

Пост 17-Ноя-2012 18:57 (спустя 4 часа)

[Q] 

Спасибо!!! Посмотрю!!!
[Профиль]  [ЛС] 

alexkalchenko

Корсар

40

Пост 18-Ноя-2012 14:08 (спустя 19 часов)

[Q] 

сказка 21 века.
[Профиль]  [ЛС] 
Показать сообщения:    
Ответить на тему

Текущее время: Сегодня 23:52

Часовой пояс: GMT + 4



Вы не можете начинать темы
Вы не можете отвечать на сообщения
Вы не можете редактировать свои сообщения
Вы не можете удалять свои сообщения
Вы не можете голосовать в опросах
Вы не можете прикреплять файлы к сообщениям
Вы не можете скачивать файлы

▼ Вниз