ML
     
  Уважаемый Гость!
Вы можете поддержать проект и зарегистрироваться у наших партнеров - онлайн-стратегия MyLands. При регистрации в игре Вы получите код, который сможете активировать после регистрации на pirat.ca и получить 1000 дублонов.

Ваш код:
69f316be79867e9bf99caee9682d20bb11964507
 
     

Ключ от спальни (Эльдар Рязанов) [2003 г., комедия, DVDRip]

Ответить на тему
 
Автор
Сообщение

Пост 18-Ноя-2012 18:01

[Q] 

sandman1973

Гроза морей

-Ключ от спальни-- Производство: Россия
Режиссер: Эльдар Рязанов
Жанр: комедия
Год выпуска: 2003 г.
Продолжительность: 02:15:00
Российская премьера: 21 июня 2003
В ролях: Евгения Крюкова
Николай Фоменко
Сергей Маковецкий
Владимир Симонов
Сергей Безруков
Федор Чеханков
Александр Пашутин
Наталья Щукина
Андрей Толубеев
Ольга Васильева-Описание: Действие фривольной комедии происходит в столице Российской империи, Санкт-Петербурге, в начале XX столетия. Прекрасное, предгрозовое время, которое позже назовут «Серебряным веком». Пленительные женщины носят сногсшибательные наряды, мужчины по любому поводу и без оного демонстрируют элегантность и смелость. Новые идеи, новые стили и жанры, новые ритмы. И, кажется, все пишут стихи! А тут еще одно чудо — синематограф…-
Качество видео: DVDRip
Формат видео: AVI
Видео кодек: DivX
Аудио кодек: AC3
Видео: 576х416, ~982 Кбит/сек, 25,000 кадров/сек
Аудио: 448 Кбит/сек, 6 каналов, 48,0 КГц

Общее
Полное имя : E:\Загрузки\Klyuch ot spalni[pirat.ca].avi
Формат : AVI
Формат/Информация : Audio Video Interleave
Размер файла : 1,37 Гбайт
Продолжительность : 2 ч. 15 м.
Общий поток : 1440 Кбит/сек
Программа кодирования : VirtualDubMod 1.5.10.1 (build 2366/release)
Библиотека кодирования : VirtualDubMod build 2366/release
Видео
Идентификатор : 0
Формат : MPEG-4 Visual
Параметр BVOP формата : 2
Параметр QPel формата : Нет
Параметр GMC формата : 2 точки перехода
Параметр матрицы формата : Default (H.263)
Идентификатор кодека : DX50
Идентификатор кодека/Подсказка : DivX 5
Продолжительность : 2 ч. 15 м.
Битрейт : 982 Кбит/сек
Ширина : 576 пикселей
Высота : 416 пикселей
Соотношение сторон : 1,385
Частота кадров : 25,000 кадров/сек
Цветовое пространство : YUV
Субдискретизация насыщенности : 4:2:0
Битовая глубина : 8 бит
Тип развёртки : Прогрессивная
Метод сжатия : С потерями
Бит/(Пиксели*Кадры) : 0.164
Размер потока : 955 Мбайт (68%)
Библиотека кодирования : DivX 1328m
Аудио
Идентификатор : 1
Формат : AC-3
Формат/Информация : Audio Coding 3
Расширение режима : CM (complete main)
Параметр Endianness формата : Big
Идентификатор кодека : 2000
Продолжительность : 2 ч. 15 м.
Вид битрейта : Постоянный
Битрейт : 448 Кбит/сек
Каналы : 6 каналов
Расположение каналов : Front: L C R, Side: L R, LFE
Частота : 48,0 КГц
Битовая глубина : 16 бит
Метод сжатия : С потерями
Задержка видео : 216 мс.
Размер потока : 436 Мбайт (31%)
Выравнивание : Разделение по промежуткам
Продолжительность промежутка : 40 мс. (1,00 видеокадр)
Время предзагрузки промежутка : 500 мс.
Download / Скачать

Хотите скачать бесплатно? Зарегистрируйтесь на сайте (ссылка на регистрацию). Pirat.ca - самый быстрый торрент трекер в рунете!

Как скачивать  ·   Что такое торрент  ·   Рейтинг и ограничения

sandman1973 ®

Гроза морей

2129

Пост 18-Ноя-2012 18:27 (спустя 25 минут)

[Q] 

К юбилею нашего любимого Эльдара Рязанова (18 ноября 1927)

_________________

[Профиль]  [ЛС] 

Пост 18-Ноя-2012 19:18 (спустя 51 минута)

Топик был перенесен из форума Наше кино (Трюм) в форум Российские фильмы

erchine
 

Sergi4

Гроза морей

Пост 25-Ноя-2012 00:30 (спустя 6 дней)

[Q] 

[Профиль]  [ЛС] 

h5n1

Гроза морей

483

Пост 12-Янв-2015 21:01 (спустя 2 года 1 месяц)

[Q] 

заценю Лови бочку

_________________
«Мы находимся здесь, чтобы внести свой вклад в этот мир. Иначе зачем мы здесь?» S.Jobs
[Профиль]  [ЛС] 
Показать сообщения:    
Ответить на тему

Текущее время: Сегодня 14:29

Часовой пояс: GMT + 4



Вы не можете начинать темы
Вы не можете отвечать на сообщения
Вы не можете редактировать свои сообщения
Вы не можете удалять свои сообщения
Вы не можете голосовать в опросах
Вы не можете прикреплять файлы к сообщениям
Вы не можете скачивать файлы

▼ Вниз