ML
     
  Уважаемый Гость!
Вы можете поддержать проект и зарегистрироваться у наших партнеров - онлайн-стратегия MyLands. При регистрации в игре Вы получите код, который сможете активировать после регистрации на pirat.ca и получить 1000 дублонов.

Ваш код:
8b29d0f8cd61fe457e59e7df0aa1fab41a2b88b9
 
     

С любовью из ада (Андрей Щербинин) [2011 г., мелодрама, криминал, DVDRip] [Лицензия]

Ответить на тему
 
Автор
Сообщение

Пост 21-Ноя-2012 14:12

[Q] 

AGKRus36

-С любовью из ада-«Месть страстная и беспощадная как... любовь»- Производство: Россия / Триикс Медиа
Режиссер: Андрей Щербинин
Жанр: мелодрама, криминал
Год выпуска: 2011 г.
Продолжительность: 01:31:04
Российская премьера: 30 декабря 2011
Дата выхода DVD: 22 ноября 2012, «Русское счастье»
В ролях: Илья Алексеев, Светлана Цвиченко, Филипп Величко, Юрий Ермаков, Алина Ван Ортон, Александр Иванов-Описание: Двадцатилетний Дмитрий, он же Димон, он же Демон, красив, умен, талантлив. Он известный в Питере клубный ди-джей. Море поклонниц, удовольствий, кайфа. Он знакомится в клубе с очень красивой девушкой… она идеал. Демон влюбляется с первого взгляда. Он готов на все ради нее. И она требует доказательств…-Сэмпл КиноПоиск
Качество видео: DVDRip
Формат видео: AVI
Видео кодек: XviD
Аудио кодек: AC3
Видео: 720x384, 1836 kbps, 25.000 fps
Аудио: AC3, 448 kb/s (6 ch), 48.0 KHz (Лицензия)
Cубтитры: отсутствуют
D:\Фильмы\С любовью из ада\S.lyubovyu.iz.ada.2011.O.DVDRip.avi
General
Complete name : D:\Фильмы\С любовью из ада\S.lyubovyu.iz.ada.2011.O.DVDRip.avi
Format : AVI
Format/Info : Audio Video Interleave
File size : 1.46 GiB
Duration : 1h 31mn
Overall bit rate : 2 295 Kbps
Writing application : VirtualDubModRus 1.5.10.2 (build 2542/release)
Original source form/Name : Movie
Video #0
ID : 0
Format : MPEG-4 Visual
Format profile : Advanced [email protected]
Format settings, BVOP : Yes
Format settings, QPel : No
Format settings, GMC : No warppoints
Format settings, Matrix : Custom
Codec ID : XVID
Codec ID/Hint : XviD
Duration : 1h 31mn
Bit rate : 1 837 Kbps
Width : 720 pixels
Height : 384 pixels
Display aspect ratio : 1.875
Frame rate : 25.000 fps
Resolution : 8 bits
Colorimetry : 4:2:0
Scan type : Progressive
Bits/(Pixel*Frame) : 0.266
Stream size : 1.17 GiB (80%)
Writing library : XviD 1.2.1 (UTC 2008-12-04)
Audio #1
ID : 1
Format : AC-3
Format/Info : Audio Coding 3
Codec ID : 2000
Duration : 1h 31mn
Bit rate mode : Constant
Bit rate : 448 Kbps
Channel(s) : 6 channels
Channel positions : Front: L C R, Surround: L R, LFE
Sampling rate : 48.0 KHz
Stream size : 292 MiB (20%)
Alignment : Split accross interleaves
Interleave, duration : 40 ms (1.00 video frame)
Interleave, preload duration : 500 ms
Download / Скачать

Хотите скачать бесплатно? Зарегистрируйтесь на сайте (ссылка на регистрацию). Pirat.ca - самый быстрый торрент трекер в рунете!

Как скачивать  ·   Что такое торрент  ·   Рейтинг и ограничения



Последний раз редактировалось: AGKRus36 (2012-11-21 18:47), всего редактировалось 1 раз

kinstintin

Гроза морей

Пост 21-Ноя-2012 20:48 (спустя 6 часов)

[Q] 

[Профиль]  [ЛС] 

AGKRus36 ®

37906

Пост 22-Ноя-2012 11:25 (спустя 14 часов)

[Q] 

О превратностях любви или «кокосовый» траффик в действии…
Пускай российский кинематограф и не является конкурентоспособным по отношению к Западному собрату, но всё же в последнее время делает уверенные шаги в своём развитии, — подтверждением тому служат и освоение отечественными кинематографистами новых технологий, а также появление действительно качественных кинопродуктов. В данном случае речь пойдёт о конкретном ТВ-проекте — криминальной драме о реальной жизни под названием «С любовью из ада».
Признаюсь честно, буквально до вчерашнего дня я не слышал ни единого слова, ни малейшего упоминания — ни о задействованных в ленте актёрах, ни о сюжетной линии, ни собственно о самой картине. Заинтересовавшись её рекламой на НТВ, решил посмотреть, что же вышло у наших киношников в очередной раз. А на деле получился весьма качественный, интересный и интригующий кинофильм. Кинофильм, затрагивающий такие вопросы, как связи с наркотиками, жестокость любви, а также вера другим людям. Как взаимосвязаны эти вопросы, я считаю, расписывать не имеет смысла — это нужно видеть своими глазами. Скажу по этому поводу лишь следующее — картина действительно великолепна, насквозь пропитана атмосферой напряжённости и запахом преступления, не лишена сентиментальности и даже трагичности исхода дел.
Как и во многих фильмах подобного жанра, сюжет и этого не лишён любви. Любви страстной и ослепляющей. Но в данном случае, таковая оказалась более, чем просто злой — жестокой, жертвенной и, как следствие, кровавой. На мой взгляд, сценарист, а по совместительству — и режиссёр-постановщик Андрей Щербинин как нельзя ярко, точно и достаточно жёстко передал свой замысел и всю суть вещей. Давненько я не смотрел столь впечатляющих, пробивных, актуальных и наполненных смыслом картин.
Воздавая оду благодарности и хвалы режиссёру, не могу не сказать пары слов об актёрах — таковые блеснули своим талантом на «Ура». Как говорил товарищ Станиславский «Верю!» — исполнителям этих ролей действительно веришь. Особенно хотелось бы отметить неизвестных зрителю Илью Алексеева и Светлану Цвиченко. Эти ребята на ура справились с исполнением ролей главных героев. Если за протагониста Ильи беспокоишься весь фильм, то в случае с героиней Светланы многое начинаешь понимать по ходу развития экранных событий, всё это время не переставая восхищаться прелестной игрой актрисы, и осознавая всю противоречивость и сложность её персонажа.
Что касается сюжета, могу сказать следующее — пусть он и не является нонсенсом или самой оригинальностью в чистом виде, но таковой без труда поражает своей приближённостью к реальности и точно подмеченной идеей, которую можно выразить в довольно простой фразе —
«Доверяя — проверяй и думай головой о возможных последствиях своих поспешных действий».
Что-что, но этот фильм принёс для меня полезную пищу для размышления, поэтому, если Вы ищете что-то яркое, но содержательное, динамичное и волнительное из категории «Наше Кино», — советую к просмотру сей продукт. Он — то, что Вам нужно!..

_________________
Мои раздачи
[Профиль]  [ЛС] 
Показать сообщения:    
Ответить на тему

Текущее время: Сегодня 21:24

Часовой пояс: GMT + 4



Вы не можете начинать темы
Вы не можете отвечать на сообщения
Вы не можете редактировать свои сообщения
Вы не можете удалять свои сообщения
Вы не можете голосовать в опросах
Вы не можете прикреплять файлы к сообщениям
Вы не можете скачивать файлы

▼ Вниз