ML
     
  Уважаемый Гость!
Вы можете поддержать проект и зарегистрироваться у наших партнеров - онлайн-стратегия MyLands. При регистрации в игре Вы получите код, который сможете активировать после регистрации на pirat.ca и получить 1000 дублонов.

Ваш код:
21acd5966619d49ad0b90c3305467b4646cc11a8
 
     

Выше неба (Дмитрий Маринин, Андрей Курейчик) [2012 г., драма, HDTVRip] [Режиссерская версия]

Ответить на тему
 
Автор
Сообщение

Пост 22-Ноя-2012 19:18

[Q] 

Legenda_N

Лоцман

-Выше неба / Режиссерская версия-- Производство: Беларусь
Режиссер: Дмитрий Маринин, Андрей Курейчик
Жанр: драма
Год выпуска: 2012
Продолжительность: 02:13:30
В ролях: Леонид Пашковский, Олеся Грибок, Оксана Чивелева, Евгений Булка, Дмитрий Винсент Попко, Иван Трус, Виктор Рыбчинский, Татьяна Бовкалова, Ольга Нефедова, Тамара Миронова-Описание: Главный герой — молодой белорус Никита Мицкевич. Ему около 20 лет, живет и учится в Минске. Он музыкант, композитор, играет в модной минской группе…
Но тут происходит событие, которое переворачивает всю его жизнь - Никита заболевает ВИЧ. О его беде узнаёт его окружение: любимая бросает его, группа отворачивается...-Сэмпл КиноПоиск
Качество видео: HDTVRip
Формат видео: AVI
Видео кодек: XviD
Аудио кодек: AC3
Видео: 720x304 (2.37:1), 25 fps, XviD build 65 ~1336 kbps avg, 0.24 bit/pixel
Аудио: 48 kHz, AC3 Dolby Digital, 2/0 (L,R) ch, ~192 kbps
Cубтитры: отсутствуют
Общее
Полное имя : D:\Фильмы\Наше кино\Выше неба_1.46.avi
Формат : AVI
Формат/Информация : Audio Video Interleave
Размер файла : 1,43 Гбайт
Продолжительность : 2 ч. 13 м.
Общий поток : 1538 Кбит/сек
Программа кодирования : VirtualDubMod 1.5.10.3 | www.virtualdub-fr.org || (build 2550/release)
Библиотека кодирования : VirtualDubMod build 2550/release
Видео
Идентификатор : 0
Формат : MPEG-4 Visual
Профиль формата : Advanced [email protected]
Параметр BVOP формата : 1
Параметр QPel формата : Нет
Параметр GMC формата : Без точки перехода
Параметр матрицы формата : Выборочная
Идентификатор кодека : XVID
Идентификатор кодека/Подсказка : XviD
Продолжительность : 2 ч. 13 м.
Битрейт : 1336 Кбит/сек
Ширина : 720 пикселей
Высота : 304 пикселя
Соотношение сторон : 2,35:1
Частота кадров : 25,000 кадров/сек
Цветовое пространство : YUV
Субдискретизация насыщенности : 4:2:0
Битовая глубина : 8 бит
Тип развёртки : Прогрессивная
Метод сжатия : С потерями
Бит/(Пиксели*Кадры) : 0.244
Размер потока : 1,25 Гбайт (87%)
Библиотека кодирования : XviD 65
Аудио
Идентификатор : 1
Формат : AC-3
Формат/Информация : Audio Coding 3
Расширение режима : CM (complete main)
Параметр Endianness формата : Big
Идентификатор кодека : 2000
Продолжительность : 2 ч. 13 м.
Вид битрейта : Постоянный
Битрейт : 192 Кбит/сек
Каналы : 2 канала
Расположение каналов : Front: L R
Частота : 48,0 КГц
Битовая глубина : 16 бит
Метод сжатия : С потерями
Размер потока : 183 Мбайт (12%)
Выравнивание : Разделение по промежуткам
Продолжительность промежутка : 40 мс. (1,00 видеокадр)
Время предзагрузки промежутка : 500 мс.
File: Выше неба_1.46.avi
FileSize: 1468.64 Mb ( 1 539 979 264 bytes )
Play length: 02:13:30.600 (200265 frames)
Subtitles: Not Present
Video: 720x304 (2.37:1), 25 fps, XviD build 65 ~1336 kbps avg, 0.24 bit/pixel
Audio: 48 kHz, AC3 Dolby Digital, 2/0 (L,R) ch, ~192 kbps
Download / Скачать

Хотите скачать бесплатно? Зарегистрируйтесь на сайте (ссылка на регистрацию). Pirat.ca - самый быстрый торрент трекер в рунете!

Как скачивать  ·   Что такое торрент  ·   Рейтинг и ограничения



Последний раз редактировалось: Legenda_N (2012-11-23 03:24), всего редактировалось 2 раз(а)

Пост 23-Ноя-2012 03:30 (спустя 8 часов)

Топик был перенесен из форума Наше кино (Трюм) в форум Наше кино

erchine
 

pomp75

Лоцман

Пост 02-Мар-2013 15:47 (спустя 3 месяца 9 дней)

[Q] 

Отличный фильм! Конечно, тема не нова и есть заимствования из других фильмов - но все равно смотрится на одном дыхании. Надо такое кино показывать на тв вместо социальных реклам.
[Профиль]  [ЛС] 
Показать сообщения:    
Ответить на тему

Текущее время: Сегодня 23:15

Часовой пояс: GMT + 4



Вы не можете начинать темы
Вы не можете отвечать на сообщения
Вы не можете редактировать свои сообщения
Вы не можете удалять свои сообщения
Вы не можете голосовать в опросах
Вы не можете прикреплять файлы к сообщениям
Вы не можете скачивать файлы

▼ Вниз