ML
     
  Уважаемый Гость!
Вы можете поддержать проект и зарегистрироваться у наших партнеров - онлайн-стратегия MyLands. При регистрации в игре Вы получите код, который сможете активировать после регистрации на pirat.ca и получить 1000 дублонов.

Ваш код:
21acd5966619d49ad0b90c3305467b4646cc11a8
 
     

Любовь с акцентом (Резо Гигинеишвили) [2012 г., комедия, приключения, DVDRip] [Лицензия]

Страницы :  1, 2  След.

Ответить на тему
 
Автор
Сообщение

Пост 22-Ноя-2012 23:18

[Q] 

AGKRus36

-Любовь с акцентом-- Производство: Россия / апрельМИГпикчерс, Независимый Кинопроект
Режиссер: Резо Гигинеишвили
Жанр: комедия, приключения
Год выпуска: 2012 г.
Продолжительность: 01:39:40
Российская премьера: 11 октября 2012, «Централ Партнершип»
Дата выхода DVD: 26 ноября 2012, «Новый Диск»
Дата выхода Blu-Ray: 10 декабря 2012, «Новый Диск»-В ролях: Светлана Бондарчук, Филипп Янковский, Надежда Михалкова, Анна Михалкова, Никита Ефремов, Артур Смольянинов, Ирина Пегова, Ольга Баблуани, Дута Схиртладзе, Георгий Кипшидзе-Описание: «Любовь с акцентом» - фильм о настоящей любви: яркой и страстной, зрелой и беспощадной, наивной и нелепой, счастливой и не очень. Истории героев сплетаются в одну большую ироничную комедию о том, что настоящая любовь не знает ни границ, ни законов, ни национальностей. Романтические приключения таких разных и непохожих друг на друга героев под аккомпанемент завораживающей южной природы-Сэмпл КиноПоиск
Качество видео: DVDRip
Формат видео: AVI
Видео кодек: XviD
Аудио кодек: AC3
Видео: 720x304, 1634 kbps, 25.000 fps
Аудио: AC3, 448 kb/s (6 ch), 48.0 KHz (Лицензия)
Cубтитры: отсутствуют
D:\Фильмы\Любовь с акцентом\Ljubov.s.akcentom.2012.O.DVDRip.avi
General
Complete name : D:\Фильмы\Любовь с акцентом\Ljubov.s.akcentom.2012.O.DVDRip.avi
Format : AVI
Format/Info : Audio Video Interleave
File size : 1.46 GiB
Duration : 1h 39mn
Overall bit rate : 2 092 Kbps
Genre : Adventure / Comedy
Writing application : VirtualDubMod 1.5.10.2 (build 2540/release)
Original source form/Name : Movie
Video #0
ID : 0
Format : MPEG-4 Visual
Format profile : Advanced [email protected]
Format settings, BVOP : Yes
Format settings, QPel : No
Format settings, GMC : No warppoints
Format settings, Matrix : Custom
Codec ID : XVID
Codec ID/Hint : XviD
Duration : 1h 39mn
Bit rate : 1 635 Kbps
Width : 720 pixels
Height : 304 pixels
Display aspect ratio : 2.35:1
Frame rate : 25.000 fps
Resolution : 8 bits
Colorimetry : 4:2:0
Scan type : Progressive
Bits/(Pixel*Frame) : 0.299
Stream size : 1.14 GiB (78%)
Writing library : XviD 1.2.1 (UTC 2008-12-04)
Audio #1
ID : 1
Format : AC-3
Format/Info : Audio Coding 3
Codec ID : 2000
Duration : 1h 39mn
Bit rate mode : Constant
Bit rate : 448 Kbps
Channel(s) : 6 channels
Channel positions : Front: L C R, Surround: L R, LFE
Sampling rate : 48.0 KHz
Stream size : 319 MiB (21%)
Alignment : Split accross interleaves
Interleave, duration : 40 ms (1.00 video frame)
Interleave, preload duration : 500 ms
Download / Скачать

Хотите скачать бесплатно? Зарегистрируйтесь на сайте (ссылка на регистрацию). Pirat.ca - самый быстрый торрент трекер в рунете!

Как скачивать  ·   Что такое торрент  ·   Рейтинг и ограничения



Последний раз редактировалось: AGKRus36 (2012-11-23 03:14), всего редактировалось 2 раз(а)

AGKRus36 ®

37906

Пост 22-Ноя-2012 23:48 (спустя 30 минут)

[Q] 

Бомба, мне понравился

_________________
Мои раздачи
[Профиль]  [ЛС] 

Пост 23-Ноя-2012 03:27 (спустя 3 часа)

Топик был перенесен из форума Наше кино (Трюм) в форум Новинки (HD|DVD|BD|TV|SAT|PDTV| - Rips)

erchine
 

Sanctum

Корсар

Пост 23-Ноя-2012 03:58 (спустя 4 часа)

[Q] 




[Профиль]  [ЛС] 

Алёха

Флибустьер

Пост 23-Ноя-2012 06:24 (спустя 2 часа 25 минут)

[Q] 

будем посмотреть
[Профиль]  [ЛС] 

slavix

Корсар

Пост 23-Ноя-2012 09:18 (спустя 2 часа 54 минуты)

[Q] 

как кино?
стоит смотреть про этих акцентов?
[Профиль]  [ЛС] 

polozm

Легенда

Пост 23-Ноя-2012 09:40 (спустя 22 минуты)

[Q] 

а как они в грузии снимали?разве можно? dj
Мишка не отшлепал их виноградной лозой?

_________________
mac mini -2.0 GHz Intel Core i7/ 8 GB DDR3. /Intel HD 3000(512mb)OS X 10.9 Mavericks
[Профиль]  [ЛС] 

infiniti-r

Корсар

Пост 23-Ноя-2012 10:29 (спустя 48 минут)

[Q] 

[Профиль]  [ЛС] 

askolomiec

Штурман

Пост 23-Ноя-2012 11:51 (спустя 1 час 22 минуты)

[Q] 

качать...
[Профиль]  [ЛС] 

maaximkaa

Корсар

Пост 23-Ноя-2012 13:58 (спустя 2 часа 7 минут)

[Q] 

так это комедия или сопли???
[Профиль]  [ЛС] 

Lana38

Корсар

Пост 23-Ноя-2012 14:36 (спустя 37 минут)

[Q] 

[Профиль]  [ЛС] 

iuhgyguyg

Лоцман

Пост 23-Ноя-2012 18:41 (спустя 4 часа)

[Q] 

Заценим aa aa
[Профиль]  [ЛС] 

markuzek

Шкипер

Пост 06-Дек-2012 20:08 (спустя 13 дней)

[Q] 

[Профиль]  [ЛС] 

AlexVl

Пост 10-Дек-2012 08:56 (спустя 3 дня)

[Q] 

угарная комедия!
[Профиль]  [ЛС] 

alex1372

Штурман

Пост 12-Дек-2012 04:34 (спустя 1 день 19 часов)

[Q] 

[Профиль]  [ЛС] 

maksim51185

Шкипер

Пост 13-Дек-2012 18:51 (спустя 1 день 14 часов)

[Q] 

[Профиль]  [ЛС] 

abc7

Гроза морей

464

Пост 18-Дек-2012 01:38 (спустя 4 дня)

[Q] 

[Профиль]  [ЛС] 

Пост 23-Дек-2012 11:33 (спустя 5 дней)

Топик был перенесен из форума Новинки (HD|DVD|BD|TV|SAT|PDTV| - Rips) в форум Российские фильмы

ara1205
 

Sergi4

Гроза морей

Пост 25-Дек-2012 13:16 (спустя 7 дней)

[Q] 

[Профиль]  [ЛС] 

lis777

Корсар

Пост 07-Фев-2013 19:55 (спустя 1 месяц 13 дней)

[Q] 

[Профиль]  [ЛС] 

Paseidon80

Морской Волк

Пост 20-Мар-2013 19:44 (спустя 1 месяц 12 дней)

[Q] 

[Профиль]  [ЛС] 

Саша1959

Флибустьер

Пост 21-Мар-2013 11:19 (спустя 15 часов)

[Q] 

[Профиль]  [ЛС] 

казаев

Морской Волк

Пост 27-Мар-2013 01:20 (спустя 5 дней)

[Q] 

[Профиль]  [ЛС] 

Alexxx05

Морской Волк

Пост 31-Мар-2013 15:24 (спустя 4 дня)

[Q] 

Нууу не особо....
[Профиль]  [ЛС] 

янка-сан

Гроза морей

Пост 11-Апр-2013 00:12 (спустя 10 дней)

[Q] 

спасибо!
[Профиль]  [ЛС] 

Nemetz

Корсар

Пост 11-Апр-2013 05:45 (спустя 5 часов)

[Q] 

Антирусская херня какая то.. Грузин режиссер, название адовое. И Михалковы еще..
[Профиль]  [ЛС] 

янка-сан

Гроза морей

Пост 23-Апр-2013 22:17 (спустя 12 дней)

[Q] 

При всем моём заранее предвзятом отношении фильм получился на удивление не плох. Снят с огромной любовью к Грузии, шикарными пейзажами. И очень позитивный.
[Профиль]  [ЛС] 

Dinikins

Штурман

Пост 15-Янв-2014 01:15 (спустя 8 месяцев 21 день)

[Q] 

что то вообще не оформлено... А где собственно узнать какой перевод!? Ой как стыдно-то...
[Профиль]  [ЛС] 

gremlion

Морской Волк

Пост 15-Фев-2014 01:49 (спустя 1 месяц)

[Q] 

большое Спасибо!!!
[Профиль]  [ЛС] 

Scorpion7474

Флибустьер

Пост 19-Фев-2014 18:28 (спустя 4 дня)

[Q] 

спасибо Автору респект!!! Лови бочку
[Профиль]  [ЛС] 
Показать сообщения:    
Ответить на тему

Текущее время: Сегодня 23:19

Часовой пояс: GMT + 4



Вы не можете начинать темы
Вы не можете отвечать на сообщения
Вы не можете редактировать свои сообщения
Вы не можете удалять свои сообщения
Вы не можете голосовать в опросах
Вы не можете прикреплять файлы к сообщениям
Вы не можете скачивать файлы

▼ Вниз