ML
     
  Уважаемый Гость!
Вы можете поддержать проект и зарегистрироваться у наших партнеров - онлайн-стратегия MyLands. При регистрации в игре Вы получите код, который сможете активировать после регистрации на pirat.ca и получить 1000 дублонов.

Ваш код:
8b29d0f8cd61fe457e59e7df0aa1fab41a2b88b9
 
     

Любовь с акцентом (Резо Гигинеишвили) [2012 г., Комедия, приключения, DVDRip-AVC]

Ответить на тему
 
Автор
Сообщение

Пост 23-Ноя-2012 19:00

[Q] 

Jigsaw

 
-Любовь с акцентом

«Море любви. Море приключений»
-- Производство: Россия, апрельМИГпикчерс, Независимый Кинопроект
Год выпуска: 2012 г.
Жанр: Комедия, приключения
Продолжительность: 01:39:41
Мировая премьера: 11 октября 2012
Российская премьера: 11 октября 2012, «Централ Партнершип»
Дата выхода DVD: 26 ноября 2012, «Новый Диск»
Дата выхода Blu-Ray: 10 декабря 2012, «Новый Диск»
Перевод: Не требуется
Режиссер: Резо Гигинеишвили-В ролях: Светлана Бондарчук, Филипп Янковский, Надежда Михалкова, Анна Михалкова, Никита Ефремов, Артур Смольянинов, Ирина Пегова, Ольга Баблуани, Дута Схиртладзе, Георгий Кипшидзе, София Нижарадзе, Гия Гогишвили, Гия Джапаридзе, Гио Хуцишвили, Заза Асанишвили, Аманда Бласко, Эка Мджаванадзе, Тамара Схиртладзе, Зука Цирекидзе, Мераб Нинидзе, Гуга Котетишвили, Георгий Каландаришвили, Онисе Ониани, Тинатин Далакишвили, Вахтанг Кикабидзе, Нани Брегвадзе, Михаил Месхи-Описание: «Любовь с акцентом» - фильм о настоящей любви: яркой и страстной, зрелой и беспощадной, наивной и нелепой, счастливой и не очень. Истории героев сплетаются в одну большую ироничную комедию о том, что настоящая любовь не знает ни границ, ни законов, ни национальностей. Романтические приключения таких разных и непохожих друг на друга героев под аккомпанемент завораживающей южной природы.- Качество видео: DVDRip
Формат видео: MKV
Видео кодек: H.264
Аудио кодек: AC3
Видео: AVC, 720x448 (2.25:1), 25.000 fps, 1 637 Kbps (0.203 bit/pixel)
Аудио: Russian: AC-3, 48.0 KHz, 6 ch, 448 Kbps
Cубтитры: отсутствуют
Общее
Уникальный идентификатор : 188669077939261204719046009330466721064 (0x8DF057B9C41D00EE9117A781ED2E8D28)
Полное имя : F:\Lyubov.s.akcentom.DVDRip.mkv
Формат : Matroska
Версия формата : Version 2
Размер файла : 1,45 Гбайт
Продолжительность : 1 ч. 39 м.
Общий поток : 2085 Кбит/сек
Дата кодирования : UTC 2012-11-23 04:25:35
Программа кодирования : mkvmerge v5.6.0 ('Kenya Kane') built on May 27 2012 16:44:04
Библиотека кодирования : libebml v1.2.3 + libmatroska v1.3.0
Видео
Идентификатор : 1
Формат : AVC
Формат/Информация : Advanced Video Codec
Профиль формата : [email protected]
Параметр CABAC формата : Да
Параметр ReFrames формата : 12 кадров
Идентификатор кодека : V_MPEG4/ISO/AVC
Продолжительность : 1 ч. 39 м.
Битрейт : 1637 Кбит/сек
Ширина : 720 пикселей
Высота : 448 пикселей
Соотношение сторон : 2,25:1
Режим частоты кадров : Постоянный
Частота кадров : 25,000 кадров/сек
Цветовое пространство : YUV
Субдискретизация насыщенности : 4:2:0
Битовая глубина : 8 бит
Тип развёртки : Прогрессивная
Бит/(Пиксели*Кадры) : 0.203
Размер потока : 1,11 Гбайт (77%)
Заголовок : Lyubov.s.akcentom.DVDRip
Библиотека кодирования : x264 core 119 r2106 07efeb4
Настройки программы : cabac=1 / ref=12 / deblock=1:-3:-3 / analyse=0x3:0x113 / me=umh / subme=11 / psy=1 / psy_rd=1.00:0.00 / mixed_ref=1 / me_range=32 / chroma_me=1 / trellis=2 / 8x8dct=1 / cqm=0 / deadzone=21,11 / fast_pskip=1 / chroma_qp_offset=-2 / threads=12 / sliced_threads=0 / nr=0 / decimate=1 / interlaced=0 / bluray_compat=0 / constrained_intra=0 / bframes=7 / b_pyramid=2 / b_adapt=2 / b_bias=0 / direct=3 / weightb=1 / open_gop=0 / weightp=2 / keyint=250 / keyint_min=25 / scenecut=40 / intra_refresh=0 / rc_lookahead=40 / rc=2pass / mbtree=1 / bitrate=1637 / ratetol=1.0 / qcomp=0.70 / qpmin=0 / qpmax=69 / qpstep=4 / cplxblur=20.0 / qblur=0.5 / ip_ratio=1.40 / aq=1:1.00
Default : Да
Forced : Нет
Аудио
Идентификатор : 2
Формат : AC-3
Формат/Информация : Audio Coding 3
Расширение режима : CM (complete main)
Параметр Endianness формата : Big
Идентификатор кодека : A_AC3
Продолжительность : 1 ч. 39 м.
Вид битрейта : Постоянный
Битрейт : 448 Кбит/сек
Каналы : 6 каналов
Расположение каналов : Front: L C R, Side: L R, LFE
Частота : 48,0 КГц
Битовая глубина : 16 бит
Метод сжатия : С потерями
Размер потока : 319 Мбайт (21%)
Заголовок : AC3.448.Kbps.Russian
Язык : Russian
Default : Да
Forced : Нет
Меню
00:00:00.000 : en:Chapter 1
00:00:30.160 : en:Chapter 2
00:09:08.560 : en:Chapter 3
00:20:24.400 : en:Chapter 4
00:30:20.560 : en:Chapter 5
00:44:51.280 : en:Chapter 6
00:56:10.960 : en:Chapter 7
01:07:44.560 : en:Chapter 8
01:22:17.680 : en:Chapter 9
01:39:38.800 : en:Chapter 10
01:39:40.600 : en:Chapter 11

Download / Скачать

Хотите скачать бесплатно? Зарегистрируйтесь на сайте (ссылка на регистрацию). Pirat.ca - самый быстрый торрент трекер в рунете!

Как скачивать  ·   Что такое торрент  ·   Рейтинг и ограничения

Пост 23-Ноя-2012 20:32 (спустя 1 час 32 минуты)

Топик был перенесен из форума Зарубежное Кино (Трюм) в форум Новинки (HD|DVD|BD|TV|SAT|PDTV| - Rips)

genkasper
 

cssergey

Корсар

Пост 24-Ноя-2012 00:06 (спустя 5 часов)

[Q] 

[Профиль]  [ЛС] 

alena.sergeeva

Лоцман

Пост 01-Дек-2012 20:03 (спустя 7 дней)

[Q] 

Спасибо!!!
[Профиль]  [ЛС] 

anarhist89

Шкипер

Пост 01-Дек-2012 22:42 (спустя 2 часа 39 минут)

[Q] 

[Профиль]  [ЛС] 

Zorky

Морской Волк

Пост 01-Дек-2012 23:48 (спустя 1 час 5 минут)

[Q] 

[Профиль]  [ЛС] 
Показать сообщения:    
Ответить на тему

Текущее время: Сегодня 21:25

Часовой пояс: GMT + 4



Вы не можете начинать темы
Вы не можете отвечать на сообщения
Вы не можете редактировать свои сообщения
Вы не можете удалять свои сообщения
Вы не можете голосовать в опросах
Вы не можете прикреплять файлы к сообщениям
Вы не можете скачивать файлы

▼ Вниз