ML
     
  Уважаемый Гость!
Вы можете поддержать проект и зарегистрироваться у наших партнеров - онлайн-стратегия MyLands. При регистрации в игре Вы получите код, который сможете активировать после регистрации на pirat.ca и получить 1000 дублонов.

Ваш код:
69f316be79867e9bf99caee9682d20bb11964507
 
     

Искатели приключений (Максим Воронков) [2012 г., комедия, приключения, DVDRip] [Лицензия]

Страницы :  1, 2  След.

Ответить на тему
 
Автор
Сообщение

Пост 24-Ноя-2012 01:01

[Q] 

AGKRus36

-Искатели приключений-- Производство: Россия
Режиссер: Максим Воронков
Жанр: комедия, приключения
Год выпуска: 2012 г.
Продолжительность: 01:41:15
Российская премьера: 18 октября 2012, «Люксор»
Дата выхода DVD: 20 ноября 2012, «Парадиз Медиа»
В ролях: Валерия Кудрявцева, Анатолий Пашинин, Игорь Гаспарян, Александр Яцко, Владимир Зайцев, Илья Олейников, Александр Семчев, Иннокентий Тарабара, Юрий Кузнецов-Таёжный, Николай Дроздов...-Описание: Что может быть опаснее, чем поиски сокровищ? Если ты готов к схваткам с местными гангстерами, погоням и другим острым ощущениям — дерзай! Так и сделали трое азартных друзей — пилот Дэн, гонщик Сергей и красавица Софи, отправившись в экзотический Тайланд на поиски затонувшего сундука с драгоценностями монахов. Следуя указателям на карте, оставленной Софи ее дедушкой, троица зафрахтовав яхту, выходит в открытое море….-Сэмпл КиноПоиск
Исходник: DVD9 R5
Качество видео: DVDRip
Формат видео: AVI
Видео кодек: XviD
Аудио кодек: AC3
Видео: 688x400 (1.720:1), 25 fps, XviD ~ 1603 kbps avg, 0.151 bit/pixel
Аудио: 48 kHz, AC3, 6 ch, 448.00 kbps (Лицензия)
Cубтитры: отсутствуют
Общее
Полное имя : Iskateli.priklutsheniy.2012.O.DVDRip.avi
Формат : AVI
Формат/Информация : Audio Video Interleave
Размер файла : 1,46 Гбайт
Продолжительность : 1 ч. 41 м.
Общий поток : 2060 Кбит/сек
Программа кодирования : VirtualDubMod 1.5.10.3 | (build 2550/release)
Библиотека кодирования : VirtualDubMod build 2550/release
Видео
Идентификатор : 0
Формат : MPEG-4 Visual
Профиль формата : Advanced [email protected]
Параметр BVOP формата : 1
Параметр QPel формата : Нет
Параметр GMC формата : Без точки перехода
Параметр матрицы формата : Выборочная
Идентификатор кодека : XVID
Идентификатор кодека/Подсказка : XviD
Продолжительность : 1 ч. 41 м.
Битрейт : 1603 Кбит/сек
Ширина : 688 пикселей
Высота : 400 пикселей
Соотношение сторон : 1,720
Частота кадров : 25,000 кадров/сек
Цветовое пространство : YUV
Субдискретизация насыщенности : 4:2:0
Битовая глубина : 8 бит
Тип развёртки : Прогрессивная
Метод сжатия : С потерями
Бит/(Пиксели*Кадры) : 0.233
Размер потока : 1,13 Гбайт (78%)
Библиотека кодирования : XviD 65
Аудио
Идентификатор : 1
Формат : AC-3
Формат/Информация : Audio Coding 3
Расширение режима : CM (complete main)
Параметр Endianness формата : Big
Идентификатор кодека : 2000
Продолжительность : 1 ч. 41 м.
Вид битрейта : Постоянный
Битрейт : 448 Кбит/сек
Каналы : 6 каналов
Расположение каналов : Front: L C R, Side: L R, LFE
Частота : 48,0 КГц
Битовая глубина : 16 бит
Метод сжатия : С потерями
Размер потока : 324 Мбайт (22%)
Выравнивание : Разделение по промежуткам
Продолжительность промежутка : 40 мс. (1,00 видеокадр)
Время предзагрузки промежутка : 500 мс.
Download / Скачать

Хотите скачать бесплатно? Зарегистрируйтесь на сайте (ссылка на регистрацию). Pirat.ca - самый быстрый торрент трекер в рунете!

Как скачивать  ·   Что такое торрент  ·   Рейтинг и ограничения

AGKRus36 ®

37905

Пост 24-Ноя-2012 01:13 (спустя 12 минут)

[Q] 

Уматный фильмец

_________________
Мои раздачи
[Профиль]  [ЛС] 

Пост 24-Ноя-2012 02:30 (спустя 1 час 16 минут)

Топик был перенесен из форума Наше кино (Трюм) в форум Новинки (HD|DVD|BD|TV|SAT|PDTV| - Rips)

erchine
 

polozm

Легенда

Пост 24-Ноя-2012 09:18 (спустя 8 часов)

[Q] 

Спасибо

_________________
mac mini -2.0 GHz Intel Core i7/ 8 GB DDR3. /Intel HD 3000(512mb)OS X 10.9 Mavericks
[Профиль]  [ЛС] 

cssergey

Корсар

Пост 24-Ноя-2012 10:16 (спустя 57 минут)

[Q] 

как фильм?
[Профиль]  [ЛС] 

kmv01

Гроза морей

Пост 24-Ноя-2012 11:58 (спустя 1 час 42 минуты)

[Q] 

Фильм нормальный, один раз можно посмотреть
[Профиль]  [ЛС] 

sdhonestus

Штурман

Пост 24-Ноя-2012 12:17 (спустя 19 минут)

[Q] 

Мне понравился
[Профиль]  [ЛС] 

Hlopich32

Лоцман

Пост 24-Ноя-2012 14:14 (спустя 1 час 56 минут)

[Q] 

Последний фильм с Олейниковым... думаю стоит посмотреть...
[Профиль]  [ЛС] 

polozm

Легенда

Пост 24-Ноя-2012 16:04 (спустя 1 час 50 минут)

[Q] 

один раз можно.а так сценарий писали на коленке за полчаса :) заточен под показ новых сисек леры кудрявцевой.Не понял что там делает Дроздов...хоть и несколько минут..денег нехватат чтоль?

_________________
mac mini -2.0 GHz Intel Core i7/ 8 GB DDR3. /Intel HD 3000(512mb)OS X 10.9 Mavericks
[Профиль]  [ЛС] 

veter13

Корсар

Пост 24-Ноя-2012 18:46 (спустя 2 часа 41 минута)

[Q] 

[Профиль]  [ЛС] 

Lana38

Корсар

Пост 24-Ноя-2012 19:49 (спустя 1 час 2 минуты)

[Q] 

Трейлер понравился , думаю стоит скачать ))
Спасибо раздающему!
[Профиль]  [ЛС] 

leonid.

Флибустьер

Пост 25-Ноя-2012 00:06 (спустя 4 часа)

[Q] 

спасибо.
[Профиль]  [ЛС] 

butin.peter

Штурман

Пост 25-Ноя-2012 03:03 (спустя 2 часа 56 минут)

[Q] 

Нормальный фильмец =)
[Профиль]  [ЛС] 

baltimor30

Морской Волк

Пост 25-Ноя-2012 12:32 (спустя 9 часов)

[Q] 

С удовольствием гляну.
[Профиль]  [ЛС] 

Semen77

Морской Волк

Пост 25-Ноя-2012 18:16 (спустя 5 часов)

[Q] 

спс
[Профиль]  [ЛС] 

Ruslan Sokolov

Лоцман

Пост 28-Ноя-2012 23:01 (спустя 3 дня)

[Q] 

Есть фильм "Искатели приключений" (1967) с Аленом Делоном. Основа сюжета спижжж... оттуда. Да и с названием не особо заморачивались:))) Только в фильме 67-го года девушка погибает, а у наших хэппи энд:)
[Профиль]  [ЛС] 

Paseidon80

Морской Волк

Пост 28-Ноя-2012 23:05 (спустя 4 минуты)

[Q] 

[Профиль]  [ЛС] 

Demon198455

Шкипер

Пост 28-Ноя-2012 23:38 (спустя 32 минуты)

[Q] 

[Профиль]  [ЛС] 

Affect

Шкипер

Пост 29-Ноя-2012 11:22 (спустя 11 часов)

[Q] 

[Профиль]  [ЛС] 

allexxxv

Морской Волк

Пост 29-Ноя-2012 17:10 (спустя 5 часов)

[Q] 

[Профиль]  [ЛС] 

JahRanger

Лоцман

Пост 29-Ноя-2012 17:54 (спустя 44 минуты)

[Q] 

Очередной российский высер
[Профиль]  [ЛС] 

Aleks44

Гроза морей

Пост 30-Ноя-2012 01:11 (спустя 7 часов)

[Q] 

Интересный спокойный позитивный фильм
[Профиль]  [ЛС] 

badi74

Корсар

Пост 01-Дек-2012 13:17 (спустя 1 день 12 часов)

[Q] 

[Профиль]  [ЛС] 

youfate

Корсар

Пост 09-Дек-2012 16:53 (спустя 8 дней)

[Q] 

[Профиль]  [ЛС] 

OleksBy

Корсар

Пост 09-Дек-2012 18:44 (спустя 1 час 51 минута)

[Q] 

[Профиль]  [ЛС] 

Тёркин

Морской Волк

Пост 09-Дек-2012 20:21 (спустя 1 час 37 минут)

[Q] 

[Профиль]  [ЛС] 

Nushka

Морской Волк

Пост 09-Дек-2012 20:53 (спустя 31 минута)

[Q] 

[Профиль]  [ЛС] 

En2010

Шкипер

Пост 10-Дек-2012 09:08 (спустя 12 часов)

[Q] 

[Профиль]  [ЛС] 

BOBROFF

Морской Волк

Пост 10-Дек-2012 15:30 (спустя 6 часов)

[Q] 

[Профиль]  [ЛС] 

denkopnin

Штурман

Пост 12-Дек-2012 17:32 (спустя 2 дня 2 часа)

[Q] 

[Профиль]  [ЛС] 
Показать сообщения:    
Ответить на тему

Текущее время: Сегодня 14:34

Часовой пояс: GMT + 4



Вы не можете начинать темы
Вы не можете отвечать на сообщения
Вы не можете редактировать свои сообщения
Вы не можете удалять свои сообщения
Вы не можете голосовать в опросах
Вы не можете прикреплять файлы к сообщениям
Вы не можете скачивать файлы

▼ Вниз