ML
     
  Уважаемый Гость!
Вы можете поддержать проект и зарегистрироваться у наших партнеров - онлайн-стратегия MyLands. При регистрации в игре Вы получите код, который сможете активировать после регистрации на pirat.ca и получить 1000 дублонов.

Ваш код:
2fd4e750dd89cae3a36ea360f2b345ccfeb562d3
 
     

Бездельники (Андрей Зайцев) [2011 г., драма, мелодрама, музыка, DVDRip]

Ответить на тему
 
Автор
Сообщение

Пост 15-Дек-2011 20:16

[Q] 

zyyx

--Бездельники
«Дальше действовать будем мы»
-- Год выпуска: 2011
Российская премьера: 10 ноября 2011, «ВВП Альянс»
Страна: Россия
Жанр: драма, мелодрама, музыка
Продолжительность: 01:33:14
Перевод: Не требуется [Лицензия]
Режиссер: Андрей Зайцев
В ролях: Антон Шагин, Андрей Шибаршин, Александра Тюфтей, Полина Филоненко, Ричард Бондарев, Игорь Теплов, Полина Райкина, Лиза Мартинес, Саша Шпиков, Светлана Жиленко
Описание: Фильм по ранним песням Виктора Цоя. Это история про молодого бездельника, легко и весело идущего по жизни. Он бренчит на гитаре и сочиняет песенки. Выпивает с друзьями-бездельниками. Обычная, почти бытовая, история предательства все в корне меняет. Так на свет появляется поэт.
Источник/Качество: DVDRip | Сэмпл
Формат: AVI
Видео кодек: XviD
Аудио кодек: AC3
Видео: 720x400 (1.80:1), 25 fps, XviD build 47 ~1862 kbps avg, 0.26 bit/pixel
Аудио: 48 kHz, AC3 Dolby Digital, 2/0 (L,R) ch, ~224.00 kbps avg
General
Complete name : D:\pirat.ca\Bezdelniki.2011.DVDRip.avi
Format : AVI
Format/Info : Audio Video Interleave
File size : 1.37 GiB
Duration : 1h 33mn
Overall bit rate : 2 097 Kbps
Movie name : Bezdelniki.2011.O.DVDRip
Writing application : VirtualDubMod 1.5.10.2 (build 2540/release)
Original source form/Name : Movie
Video
ID : 0
Format : MPEG-4 Visual
Format profile : Advanced [email protected]
Format settings, BVOP : 2
Format settings, QPel : No
Format settings, GMC : No warppoints
Format settings, Matrix : Custom
Codec ID : XVID
Codec ID/Hint : XviD
Duration : 1h 33mn
Bit rate : 1 863 Kbps
Width : 720 pixels
Height : 400 pixels
Display aspect ratio : 16:9
Frame rate : 25.000 fps
Color space : YUV
Chroma subsampling : 4:2:0
Bit depth : 8 bits
Scan type : Progressive
Compression mode : Lossy
Bits/(Pixel*Frame) : 0.259
Stream size : 1.21 GiB (89%)
Writing library : XviD 1.2.0.dev47 (UTC 2006-11-01)
Audio
ID : 1
Format : AC-3
Format/Info : Audio Coding 3
Mode extension : CM (complete main)
Codec ID : 2000
Duration : 1h 33mn
Bit rate mode : Constant
Bit rate : 224 Kbps
Channel(s) : 2 channels
Channel positions : Front: L R
Sampling rate : 48.0 KHz
Bit depth : 16 bits
Compression mode : Lossy
Stream size : 149 MiB (11%)
Alignment : Split accross interleaves
Interleave, duration : 40 ms (1.00 video frame)
Interleave, preload duration : 500 ms



Download / Скачать

Хотите скачать бесплатно? Зарегистрируйтесь на сайте (ссылка на регистрацию). Pirat.ca - самый быстрый торрент трекер в рунете!

Как скачивать  ·   Что такое торрент  ·   Рейтинг и ограничения

Пост 15-Дек-2011 21:20 (спустя 1 час 3 минуты)

Топик был перенесен из форума Наше Кино в форум Новинки (HD|DVD|BD|TV|SAT|PDTV| - Rips)

Skinwalker
 

Pesok

Гроза морей

Пост 15-Янв-2012 11:48 (спустя 30 дней)

[Q] 

спасибо, посмотрим

_________________
[Профиль]  [ЛС] 

mr.Сильвер

Штурман

Пост 20-Янв-2012 20:06 (спустя 5 дней)

[Q] 

а мне понравилось,хороший фильм ,об отношениях но совсем не гузит,класс спасибо за фильм !!!!!!!!!!!!
    [Профиль]  [ЛС] 
    Показать сообщения:    
    Ответить на тему

    Текущее время: Сегодня 14:09

    Часовой пояс: GMT + 4



    Вы не можете начинать темы
    Вы не можете отвечать на сообщения
    Вы не можете редактировать свои сообщения
    Вы не можете удалять свои сообщения
    Вы не можете голосовать в опросах
    Вы не можете прикреплять файлы к сообщениям
    Вы не можете скачивать файлы

    ▼ Вниз