ML
     
  Уважаемый Гость!
Вы можете поддержать проект и зарегистрироваться у наших партнеров - онлайн-стратегия MyLands. При регистрации в игре Вы получите код, который сможете активировать после регистрации на pirat.ca и получить 1000 дублонов.

Ваш код:
4855957e17f50c5c1236a0f8c4492b2b0bba00a0
 
     

Антидурь (Владимир Щегольков) [2007 г., криминальная комедия, DVDRip][internal release]

Ответить на тему
 
Автор
Сообщение

Пост 30-Ноя-2012 16:58

[Q] 

megamastor

-Антидурь-- Производство: Russian World Studios
Режиссер: Владимир Щегольков
Жанр: криминальная комедия
Год выпуска: 2007 г.
Продолжительность: 01:31:11
Российская премьера: 6 сентября 2007
Дата выхода DVD: 27 сентября 2007
В ролях: Дмитрий Дюжев, Владимир Турчинский, Татьяна Догилева, Александр Баширов, Игорь Миркурбанов, Мария Сёмкина, Владимир Симонов, Олег Сорокин, Игорь Яцко, Григорий Перель, Василий Стрельников, Марина Ерисова, Адам Булгучев, Роман Крюков, Дарья Погодина, Олег Шеремет-Доска-Описание: Пpoвaлить зaдaниe, yгpoбив пo oшибкe в Лoндoнe извecтнoгo oлигapxa?! Taкoгo cпeцcлyжбы нe пpoщaют! Гepoи фильмa, cпeцaгeнты Bиктop Beльмишeв и Bлaд Кoшкин, oкaзывaютcя «cпиcaнными» в нeпoнятнoe зaвeдeниe co cтpaнным нaзвaниeм «Aнтидypь», гдe иx бoccoм oтнынe cтaнoвитcя cypoвый пoлкoвник Зинaидa Mopoз и нe дaeт cocкyчитьcя кpиминaлиcт Hикoлaй Paкoв.-Сэмпл КиноПоиск
Качество видео: DVDRip
Формат видео: AVI
Видео кодек: XviD
Аудио кодек: AC3
Видео: 720х400, 2096 Кбит/сек, 25,000 кадров/сек
Аудио: 192 Кбит/сек, 2 канала, 48,0 КГц
Cубтитры: отсутствуют
Формат : AVI
Формат/Информация : Audio Video Interleave
Размер файла : 1,46 Гбайт
Продолжительность : 1 ч. 31 м.
Общий поток : 2297 Кбит/сек
Программа кодирования : VirtualDubMod 1.5.10.3 | www.virtualdub-fr.org || (build 2550/release)
Библиотека кодирования : VirtualDubMod build 2550/release
Видео
Идентификатор : 0
Формат : MPEG-4 Visual
Профиль формата : Advanced [email protected]
Параметр BVOP формата : 2
Параметр QPel формата : Нет
Параметр GMC формата : Без точки перехода
Параметр матрицы формата : Default (H.263)
Идентификатор кодека : XVID
Идентификатор кодека/Подсказка : XviD
Продолжительность : 1 ч. 31 м.
Битрейт : 2096 Кбит/сек
Ширина : 720 пикселей
Высота : 400 пикселей
Соотношение сторон : 16:9
Частота кадров : 25,000 кадров/сек
Цветовое пространство : YUV
Субдискретизация насыщенности : 4:2:0
Битовая глубина : 8 бит
Тип развёртки : Прогрессивная
Метод сжатия : С потерями
Бит/(Пиксели*Кадры) : 0.291
Размер потока : 1,34 Гбайт (91%)
Библиотека кодирования : XviD 1.2.1 (UTC 2008-12-04)
Аудио
Идентификатор : 1
Формат : AC-3
Формат/Информация : Audio Coding 3
Расширение режима : CM (complete main)
Параметр Endianness формата : Big
Идентификатор кодека : 2000
Продолжительность : 1 ч. 31 м.
Вид битрейта : Постоянный
Битрейт : 192 Кбит/сек
Каналы : 2 канала
Расположение каналов : Front: L R
Частота : 48,0 КГц
Битовая глубина : 16 бит
Метод сжатия : С потерями
Размер потока : 125 Мбайт (8%)
Выравнивание : Разделение по промежуткам
Продолжительность промежутка : 40 мс. (1,00 видеокадр)
Время предзагрузки промежутка : 500 мс.
Download / Скачать

Хотите скачать бесплатно? Зарегистрируйтесь на сайте (ссылка на регистрацию). Pirat.ca - самый быстрый торрент трекер в рунете!

Как скачивать  ·   Что такое торрент  ·   Рейтинг и ограничения

Пост 30-Ноя-2012 20:11 (спустя 3 часа)

Топик был перенесен из форума Наше кино (Трюм) в форум Российские фильмы

erchine
 

hohol541

Корсар

Пост 29-Дек-2012 10:31 (спустя 28 дней)

[Q] 

Лично мне понравилось самое начало.Такие танцоры...
[Профиль]  [ЛС] 
Показать сообщения:    
Ответить на тему

Текущее время: Сегодня 06:16

Часовой пояс: GMT + 4



Вы не можете начинать темы
Вы не можете отвечать на сообщения
Вы не можете редактировать свои сообщения
Вы не можете удалять свои сообщения
Вы не можете голосовать в опросах
Вы не можете прикреплять файлы к сообщениям
Вы не можете скачивать файлы

▼ Вниз