ML
     
  Уважаемый Гость!
Вы можете поддержать проект и зарегистрироваться у наших партнеров - онлайн-стратегия MyLands. При регистрации в игре Вы получите код, который сможете активировать после регистрации на pirat.ca и получить 1000 дублонов.

Ваш код:
59354507ba913a0948d1a8f2e30f2e04c4cd7b9b
 
     

Отпуск / Начальник (Андрей Коршунов) [2012 г., Криминал, боевик, SATRip]

Ответить на тему
 
Автор
Сообщение

Пост 30-Ноя-2012 18:04

[Q] 

AGKRus36

-Отпуск (Начальник)-- Производство: Россия, Триикс Медиагруп по заказу НТВ
Режиссер: Андрей Коршунов
Жанр: Криминал, боевик
Год выпуска: 2012 г.
Продолжительность: 01:26:21
В ролях: Денис Рожков, Денис Синявский, Елена Купрашевич, Светлана Бакулина, Дмитрий Поддубный, Игорь Копылов, Геша Меньшиков-Описание: Капитан полиции Иван, с женой Светланой, в свой выходной день отправился в кино. Грабители Хан, Анна и Сергей тоже решили провести день вместе, только их «отдых» был расписан по минутам. Нападение на инкассаторов они продумали до мелочей, но не учли, что на пути может оказаться… Иван. Хан и Сергей арестованы. Но уходя от преследования бандит застрелил жену Ивана Свету. Третьему подельнику - Анне, удается уйти...-Сэмпл
Качество видео: SATRip
Формат видео: AVI
Видео кодек: DivX 5
Аудио кодек: MP3
Видео: 704x384, 1994 kbps, 25.000 fps
Аудио: MP3, 2 ch, 128 Kbps. 48.0 KHz
Cубтитры: отсутствуют
F:\Фильмы\Отпуск\Otpusk.2012.О.SATRip.avi
General
Complete name : F:\Фильмы\Отпуск\Otpusk.2012.О.SATRip.avi
Format : AVI
Format/Info : Audio Video Interleave
File size : 1.29 GiB
Duration : 1h 26mn
Overall bit rate : 2 135 Kbps
Writing library : Boilsoft AVI tool build 1/release
Video #0
ID : 0
Format : MPEG-4 Visual
Format profile : [email protected]
Format settings, BVOP : No
Format settings, QPel : No
Format settings, GMC : No warppoints
Format settings, Matrix : Default (H.263)
Codec ID : DX50
Codec ID/Hint : DivX 5
Duration : 1h 26mn
Bit rate : 1 994 Kbps
Width : 704 pixels
Height : 384 pixels
Display aspect ratio : 16:9
Frame rate : 25.000 fps
Resolution : 8 bits
Colorimetry : 4:2:0
Scan type : Progressive
Bits/(Pixel*Frame) : 0.295
Stream size : 1.20 GiB (93%)
Writing library : XviD 1.2.1 (UTC 2008-12-04)
Audio #1
ID : 1
Format : MPEG Audio
Format version : Version 1
Format profile : Layer 3
Format_Settings_Mode : Joint stereo
Format_Settings_ModeExtension : MS Stereo
Codec ID : 55
Codec ID/Hint : MP3
Duration : 1h 26mn
Bit rate mode : Constant
Bit rate : 128 Kbps
Channel(s) : 2 channels
Sampling rate : 48.0 KHz
Stream size : 79.1 MiB (6%)
Alignment : Aligned on interleaves
Interleave, duration : 24 ms (0.60 video frame)
Interleave, preload duration : 504 ms
Writing library : LAME3.98.2
Download / Скачать

Хотите скачать бесплатно? Зарегистрируйтесь на сайте (ссылка на регистрацию). Pirat.ca - самый быстрый торрент трекер в рунете!

Как скачивать  ·   Что такое торрент  ·   Рейтинг и ограничения



Последний раз редактировалось: AGKRus36 (2012-11-30 21:44), всего редактировалось 3 раз(а)

AGKRus36 ®

37905

Пост 30-Ноя-2012 19:08 (спустя 1 час 4 минуты)

[Q] 

Денис Рожков, Денис Синявский, Елена Купрашевич, Светлана Бакулина

_________________
Мои раздачи
[Профиль]  [ЛС] 

Пост 30-Ноя-2012 21:55 (спустя 2 часа 46 минут)

Топик был перенесен из форума Наше кино (Трюм) в форум Новинки (HD|DVD|BD|TV|SAT|PDTV| - Rips)

erchine
 

got70

Легенда

752

Пост 01-Дек-2012 14:38 (спустя 19 часов)

[Q] 

aa

_________________
Добро непременно победит зло!Непременно...Затем поставит на колени,и зверски УБЬЁТ!
[Профиль]  [ЛС] 
Показать сообщения:    
Ответить на тему

Текущее время: Сегодня 16:11

Часовой пояс: GMT + 4



Вы не можете начинать темы
Вы не можете отвечать на сообщения
Вы не можете редактировать свои сообщения
Вы не можете удалять свои сообщения
Вы не можете голосовать в опросах
Вы не можете прикреплять файлы к сообщениям
Вы не можете скачивать файлы

▼ Вниз