ML
     
  Уважаемый Гость!
Вы можете поддержать проект и зарегистрироваться у наших партнеров - онлайн-стратегия MyLands. При регистрации в игре Вы получите код, который сможете активировать после регистрации на pirat.ca и получить 1000 дублонов.

Ваш код:
2a3da67fd641d69eeebb7cb965232435a70eaa24
 
     

Оружие (Александр Рогожкин) [2011 г., криминал, DVDRip] [Лицензия]

Ответить на тему
 
Автор
Сообщение

Пост 30-Ноя-2012 22:09

[Q] 

AGKRus36

-Оружие-- Производство: Россия / Триикс Медиа
Режиссер: Александр Рогожкин
Жанр: криминал
Год выпуска: 2011 г.
Продолжительность: 01:25:16
Российская премьера: 2 марта 2012
Дата выхода DVD: 29 ноября 2012, «Русское счастье»
В ролях: Дмитрий Паламарчук, Илья Носков, Светлана Щедрина, Антон Багров, Антон Пулит, Сергей Галич, Федор Черных, Алексей Морозов, Эльдар Лебедев, Артем Алексеев-Описание: «О. Р. У. Ж. И. Е» — это аббревиатура из имен друзей: О — Олег, военный пенсионер, Р — Роман, ученый, сотрудник НИИ, У — Ульяна, телевизионный корреспондент, Ж — Женя, физик, доктор наук, И — Игорь, предприниматель, бывший репортер, муж Ульяны, Е — Егор, лаборант провинциального научного центра. Олег и Роман испытывают новейшее оружие — винтовку, обладающую исключительной дальнобойностью и разрушительной силой. Испытания проходят удачно, и Олег пытается заинтересовать этим оружием военных.-Сэмпл КиноПоиск
Качество видео: DVDRip
Формат видео: AVI
Видео кодек: XviD
Аудио кодек: AC3
Видео: 720x384, 1841 kbps, 25.000 fps
Аудио: AC3, 448 kb/s (6 ch), 48.0 KHz [Лицензия]
Cубтитры: отсутствуют
F:\Фильмы\Оружие\Oruzhie.2011.O.DVDRip.avi
General
Complete name : F:\Фильмы\Оружие\Oruzhie.2011.O.DVDRip.avi
Format : AVI
Format/Info : Audio Video Interleave
File size : 1.37 GiB
Duration : 1h 25mn
Overall bit rate : 2 300 Kbps
Writing application : VirtualDubModRus 1.5.10.2 (build 2542/release)
Original source form/Name : Movie
Format : MPEG-4 Visual
Format profile : Advanced [email protected]
Format settings, BVOP : Yes
Format settings, QPel : No
Format settings, GMC : No warppoints
Format settings, Matrix : Custom
Codec ID : XVID
Codec ID/Hint : XviD
Duration : 1h 25mn
Bit rate : 1 842 Kbps
Width : 720 pixels
Height : 384 pixels
Display aspect ratio : 1.875
Frame rate : 25.000 fps
Resolution : 8 bits
Colorimetry : 4:2:0
Scan type : Progressive
Bits/(Pixel*Frame) : 0.266
Stream size : 1.10 GiB (80%)
Writing library : XviD 1.2.1 (UTC 2008-12-04)
Audio #1
ID : 1
Format : AC-3
Format/Info : Audio Coding 3
Codec ID : 2000
Duration : 1h 25mn
Bit rate mode : Constant
Bit rate : 448 Kbps
Channel(s) : 6 channels
Channel positions : Front: L C R, Surround: L R, LFE
Sampling rate : 48.0 KHz
Stream size : 273 MiB (19%)
Alignment : Split accross interleaves
Interleave, duration : 40 ms (1.00 video frame)
Interleave, preload duration : 500 ms
Download / Скачать

Хотите скачать бесплатно? Зарегистрируйтесь на сайте (ссылка на регистрацию). Pirat.ca - самый быстрый торрент трекер в рунете!

Как скачивать  ·   Что такое торрент  ·   Рейтинг и ограничения

Пост 30-Ноя-2012 23:37 (спустя 1 час 27 минут)

Топик был перенесен из форума Наше кино (Трюм) в форум Новинки (HD|DVD|BD|TV|SAT|PDTV| - Rips)

ara1205
 

infiniti-r

Корсар

Пост 01-Дек-2012 06:50 (спустя 8 часов)

[Q] 

[Профиль]  [ЛС] 

Alekc-rus

Морской Волк

Пост 01-Дек-2012 07:45 (спустя 55 минут)

[Q] 

Дык енто старый фильм!сто раз уже смотренный!Хотя фильмец могмо посмотреть! cs
[Профиль]  [ЛС] 

kmv01

Гроза морей

Пост 01-Дек-2012 10:24 (спустя 2 часа 39 минут)

[Q] 

А я и не видел. Надо будет посмотреть
[Профиль]  [ЛС] 

anarhist89

Шкипер

Пост 01-Дек-2012 22:52 (спустя 12 часов)

[Q] 

[Профиль]  [ЛС] 

miner804

Морской Волк

Пост 02-Дек-2012 13:29 (спустя 14 часов)

[Q] 

Спасибо.
[Профиль]  [ЛС] 

Колян-Вован

Корсар

Пост 02-Дек-2012 23:42 (спустя 10 часов)

[Q] 

Ну да, посмотреть мона. Эдакая типо фантастика. Жидков только многовато... напрягает, брат...

_________________
Читайте классиков...
[Профиль]  [ЛС] 

wagon

Морской Волк

Пост 10-Дек-2012 21:55 (спустя 7 дней)

[Q] 

[Профиль]  [ЛС] 
Показать сообщения:    
Ответить на тему

Текущее время: Сегодня 01:14

Часовой пояс: GMT + 4



Вы не можете начинать темы
Вы не можете отвечать на сообщения
Вы не можете редактировать свои сообщения
Вы не можете удалять свои сообщения
Вы не можете голосовать в опросах
Вы не можете прикреплять файлы к сообщениям
Вы не можете скачивать файлы

▼ Вниз