ML
     
  Уважаемый Гость!
Вы можете поддержать проект и зарегистрироваться у наших партнеров - онлайн-стратегия MyLands. При регистрации в игре Вы получите код, который сможете активировать после регистрации на pirat.ca и получить 1000 дублонов.

Ваш код:
ef8b3e8cd07bec918273586d22e5aaf18e0ae925
 
     

Не послать ли нам гонца? (Валерий Чиков) [1998 г., Драма,Комедия, DVDRip][internal release]

Ответить на тему
 
Автор
Сообщение

Пост 01-Дек-2012 09:32

[Q] 

megamastor

-Не послать ли нам гонца?-- Производство: Театр Михаила Евдокимова
Режиссер: Валерий Чиков
Жанр: Драма,Комедия
Год выпуска: 1998 г.
Продолжительность: 01:39:05
Российская премьера: 1998
В ролях: Михаил Евдокимов, Лев Дуров, Саша Комков, Ирина Розанова, Николай Трофимов, Любовь Соколова, Игорь Ясулович, Иван Бортник, Георгий Гречко, Леонид Якубович, Юрий Дуванов, Раиса Рязанова, Александр Казаков, Сергей Рубеко, Петр Меркурьев, Галина Демина-Описание: Евдокимов в роли разоренного банкирами фермера. Он отправляется в Москву к президенту поговорить о жизни. В дороге спасает из реки растрелянного в мерседесе на мосту бизнесмена, подвергается побоям в милиции, встречается с множеством людей, переживает кучу приключений и после попытки въехать в Кремль на "Запорожце" попадает в психбольницу, где и познакомился с местным Борисом Николаевичем...-Сэмпл КиноПоиск
Качество видео: DVDRip
Формат видео: AVI
Видео кодек: XviD
Аудио кодек: AC3
Видео: 720х560, 1912 Кбит/сек, 25,000 кадров/сек
Аудио: 192 Кбит/сек, 2 канала, 48,0 КГц
Cубтитры: отсутствуют
Формат : AVI
Формат/Информация : Audio Video Interleave
Размер файла : 1,46 Гбайт
Продолжительность : 1 ч. 39 м.
Общий поток : 2114 Кбит/сек
Программа кодирования : VirtualDubMod 1.5.10.3 | www.virtualdub-fr.org || (build 2550/release)
Библиотека кодирования : VirtualDubMod build 2550/release
Видео
Идентификатор : 0
Формат : MPEG-4 Visual
Профиль формата : Advanced [email protected]
Параметр BVOP формата : 2
Параметр QPel формата : Нет
Параметр GMC формата : Без точки перехода
Параметр матрицы формата : Default (H.263)
Идентификатор кодека : XVID
Идентификатор кодека/Подсказка : XviD
Продолжительность : 1 ч. 39 м.
Битрейт : 1912 Кбит/сек
Ширина : 720 пикселей
Высота : 560 пикселей
Соотношение сторон : 1,286
Частота кадров : 25,000 кадров/сек
Цветовое пространство : YUV
Субдискретизация насыщенности : 4:2:0
Битовая глубина : 8 бит
Тип развёртки : Прогрессивная
Метод сжатия : С потерями
Бит/(Пиксели*Кадры) : 0.190
Размер потока : 1,32 Гбайт (90%)
Библиотека кодирования : XviD 1.2.1 (UTC 2008-12-04)
Аудио
Идентификатор : 1
Формат : AC-3
Формат/Информация : Audio Coding 3
Расширение режима : CM (complete main)
Параметр Endianness формата : Big
Идентификатор кодека : 2000
Продолжительность : 1 ч. 39 м.
Вид битрейта : Постоянный
Битрейт : 192 Кбит/сек
Каналы : 2 канала
Расположение каналов : Front: L R
Частота : 48,0 КГц
Битовая глубина : 16 бит
Метод сжатия : С потерями
Размер потока : 136 Мбайт (9%)
Выравнивание : Разделение по промежуткам
Продолжительность промежутка : 40 мс. (1,00 видеокадр)
Время предзагрузки промежутка : 500 мс.
Download / Скачать

Хотите скачать бесплатно? Зарегистрируйтесь на сайте (ссылка на регистрацию). Pirat.ca - самый быстрый торрент трекер в рунете!

Как скачивать  ·   Что такое торрент  ·   Рейтинг и ограничения

Пост 01-Дек-2012 10:23 (спустя 50 минут)

Топик был перенесен из форума Наше кино (Трюм) в форум Российские фильмы

ara1205
 

hohol541

Корсар

Пост 29-Дек-2012 10:29 (спустя 28 дней)

[Q] 

Как-то мне не очень.Хотя смотрится легко.
[Профиль]  [ЛС] 

UncleFather

Легенда

Пост 23-Мар-2013 16:17 (спустя 2 месяца 25 дней)

[Q] 


_________________
Одни боялись Пью, другие - Билли Бонса, а меня... меня боялся сам Флинт
[Профиль]  [ЛС] 

Pitac

Штурман

Пост 18-Июл-2013 14:49 (спустя 3 месяца 25 дней)

[Q] 

Это уже классика! Лови бочку
[Профиль]  [ЛС] 

LUPIN

Морской Волк

232

Пост 18-Июл-2013 15:37 (спустя 47 минут)

[Q] 

Согласен! Классика... Жалко, что сейчас таких фильмов нет. Кому понравился гляньте еще "Про бизнесмена Фому"
[Профиль]  [ЛС] 
Показать сообщения:    
Ответить на тему

Текущее время: Сегодня 18:40

Часовой пояс: GMT + 4



Вы не можете начинать темы
Вы не можете отвечать на сообщения
Вы не можете редактировать свои сообщения
Вы не можете удалять свои сообщения
Вы не можете голосовать в опросах
Вы не можете прикреплять файлы к сообщениям
Вы не можете скачивать файлы

▼ Вниз