ML
     
  Уважаемый Гость!
Вы можете поддержать проект и зарегистрироваться у наших партнеров - онлайн-стратегия MyLands. При регистрации в игре Вы получите код, который сможете активировать после регистрации на pirat.ca и получить 1000 дублонов.

Ваш код:
ef8b3e8cd07bec918273586d22e5aaf18e0ae925
 
     

Только не сейчас (Валерий Пендраковский, Юрий Рогозин) [2010 г., мелодрама, SATRip]

Ответить на тему
 
Автор
Сообщение

Пост 01-Дек-2012 17:52

[Q] 

sandman1973

Гроза морей

-Только не сейчас-- Производство: Россия, Польша
Режиссер: Валерий Пендраковский, Юрий Рогозин
Жанр: мелодрама
Год выпуска: 2010 г.
Продолжительность: 01:23:00
Российская премьера: 26 апреля 2011
Мировая премьера: 29 июня 2011
В ролях: Александр Домогаров мл., Магдалена Лампарская, Даниэль Ольбрыхский, Вячеслав Шалевич, Михаил Васьков, Егор Харламов, Роман Ладнев-Описание: Действие картины разворачивается в 1953 году в небольшом польском городке, где находится база советских войск. Служащий в этой части солдат Шура случайно знакомится с польской девушкой Эльзой, работающей на шоколадной фабрике. Он влюбляется в нее, и девушка, кажется, отвечает на его чувства взаимностью, но постоянно откладывает свидание, повторяя: «Только не сейчас». Вскоре между возлюбленными встают барьеры: для круга, в котором вращается возлюбленная советского солдата, человек из СССР — враг и оккупант…-
Качество видео: SATRip
Формат видео: AVI
Видео кодек: XviD
Аудио кодек: AC3
Видео: 704х368, 2000 Кбит/сек, 25,000 кадров/сек
Аудио: 192 Кбит/сек, 2 канала, 48,0 КГц
Cубтитры: русские
Формат субтитров: hardsub (неотключаемые)
Общее
Формат : AVI
Формат/Информация : Audio Video Interleave
Размер файла : 1,28 Гбайт
Продолжительность : 1 ч. 23 м.
Общий поток : 2202 Кбит/сек
Программа кодирования : VirtualDubMod 1.5.10.3 | www.virtualdub-fr.org || (build 2550/release)
Библиотека кодирования : VirtualDubMod build 2550/release
Видео
Идентификатор : 0
Формат : MPEG-4 Visual
Профиль формата : Advanced [email protected]
Параметр BVOP формата : 1
Параметр QPel формата : Нет
Параметр GMC формата : Без точки перехода
Параметр матрицы формата : Default (H.263)
Идентификатор кодека : XVID
Идентификатор кодека/Подсказка : XviD
Продолжительность : 1 ч. 23 м.
Битрейт : 2000 Кбит/сек
Ширина : 704 пикселя
Высота : 368 пикселей
Соотношение сторон : 1,913
Частота кадров : 25,000 кадров/сек
Цветовое пространство : YUV
Субдискретизация насыщенности : 4:2:0
Битовая глубина : 8 бит
Тип развёртки : Прогрессивная
Метод сжатия : С потерями
Бит/(Пиксели*Кадры) : 0.309
Размер потока : 1,17 Гбайт (91%)
Библиотека кодирования : XviD 1.2.1 (UTC 2008-12-04)
Аудио
Идентификатор : 1
Формат : AC-3
Формат/Информация : Audio Coding 3
Расширение режима : CM (complete main)
Параметр Endianness формата : Big
Идентификатор кодека : 2000
Продолжительность : 1 ч. 23 м.
Вид битрейта : Постоянный
Битрейт : 192 Кбит/сек
Каналы : 2 канала
Расположение каналов : Front: L R
Частота : 48,0 КГц
Битовая глубина : 16 бит
Метод сжатия : С потерями
Размер потока : 115 Мбайт (9%)
Выравнивание : Разделение по промежуткам
Продолжительность промежутка : 40 мс. (1,00 видеокадр)
Время предзагрузки промежутка : 500 мс.
Download / Скачать

Хотите скачать бесплатно? Зарегистрируйтесь на сайте (ссылка на регистрацию). Pirat.ca - самый быстрый торрент трекер в рунете!

Как скачивать  ·   Что такое торрент  ·   Рейтинг и ограничения

Пост 01-Дек-2012 19:17 (спустя 1 час 24 минуты)

Топик был перенесен из форума Наше кино (Трюм) в форум Российские фильмы

erchine
 
Показать сообщения:    
Ответить на тему

Текущее время: Сегодня 18:38

Часовой пояс: GMT + 4



Вы не можете начинать темы
Вы не можете отвечать на сообщения
Вы не можете редактировать свои сообщения
Вы не можете удалять свои сообщения
Вы не можете голосовать в опросах
Вы не можете прикреплять файлы к сообщениям
Вы не можете скачивать файлы

▼ Вниз