ML
     
  Уважаемый Гость!
Вы можете поддержать проект и зарегистрироваться у наших партнеров - онлайн-стратегия MyLands. При регистрации в игре Вы получите код, который сможете активировать после регистрации на pirat.ca и получить 1000 дублонов.

Ваш код:
69f316be79867e9bf99caee9682d20bb11964507
 
     

Розыгрыш (Андрей Кудиненко) [2008 г., мелодрама, DVDRip]

Ответить на тему
 
Автор
Сообщение

Пост 02-Дек-2012 02:00

[Q] 

PycTABEJIi

Штурман

-Розыгрыш-- Производство: Россия
Режиссер: Андрей Кудиненко
Жанр: мелодрама
Год выпуска: 2008 г.
Продолжительность: 1:23:43
Российская премьера: 22 мая 2008
В ролях: Иван Алексеев
Евгений Дмитриев
Ирина Купченко
Юрий Кузнецов
Дмитрий Дюжев
Евдокия Германова
Дмитрий Харатьян
Клавдия Коршунова
Яна Есипович
Мария Горбань-Описание:
Обыная средняя школа, обычный выпускной класс. Мажор и папенькин сынок Вадим Комаров (Дмитриев) вступает в конфликт с молодой практиканткой — учительницей по английскому (Есипович), которая не жалеет медалиста и ставит ему заслуженные тройки. Чтобы отомстить, Комаров готов пойти на всё: подкуп учителя по физкультуре (Дюжев), навыки одноклассника-программиста, деньги отца (Харатьян). Комаров даже не гнушается воспользоваться помощью безответно влюблённой в него тихони Таи (Коршунова), которая в свою очередь нравится новичку Игорю (Алексеев) — сироте и музыканту.-КиноПоиск
Трейлер
Качество видео: DVDRip
Формат видео: AVI
Видео кодек: XviD
Аудио кодек: AC3
Видео: Video: 704x384 (1.83:1), 25 fps, XviD build 47 ~1883 kbps avg, 0.28 bit/pixel
Формат DVD: PAL
Аудио: Audio: 48 kHz, AC3 Dolby Digital, 3/2 (L,C,R,l,r) + LFE ch, ~448 kbps
Cубтитры: отсутствуют
Золотой орел, 2009 год
Победитель (1):
Лучшая женская роль второго плана (Ирина Купченко)
Номинации (1):
Лучшая мужская роль второго плана (Дмитрий Дюжев)
Кинонаграды «MTV-Россия», 2009 год
Победитель (1):
Лучшая комедийная роль (Дмитрий Дюжев)
Фильм довольно интересный даже по нескольку раз можно посмотреть. Сразу вспоминается школа да и еще и выпускной класс. Спасибо огромное Noize MC сдесь он свою роль сыграл отлично. Рекомендую к просмотру.
Видео
Идентификатор : 0
Формат : MPEG-4 Visual
Профиль формата : Advanced [email protected]
Параметр BVOP формата : 1
Параметр QPel формата : Нет
Параметр GMC формата : Без точки перехода
Параметр матрицы формата : Выборочная
Идентификатор кодека : XVID
Идентификатор кодека/Подсказка : XviD
Продолжительность : 1 ч. 23 м.
Битрейт : 1883 Кбит/сек
Ширина : 704 пикселя
Высота : 384 пикселя
Соотношение сторон : 1,85:1
Частота кадров : 25,000 кадров/сек
Цветовое пространство : YUV
Субдискретизация насыщенности : 4:2:0
Битовая глубина : 8 бит
Тип развёртки : Прогрессивная
Метод сжатия : С потерями
Бит/(Пиксели*Кадры) : 0.279
Размер потока : 1,10 Гбайт (81%)
Библиотека кодирования : XviD 1.2.0.dev47 (UTC 2006-11-01)
Аудио
Идентификатор : 1
Формат : AC-3
Формат/Информация : Audio Coding 3
Расширение режима : CM (complete main)
Параметр Endianness формата : Big
Идентификатор кодека : 2000
Продолжительность : 1 ч. 23 м.
Вид битрейта : Постоянный
Битрейт : 448 Кбит/сек
Каналы : 6 каналов
Расположение каналов : Front: L C R, Side: L R, LFE
Частота : 48,0 КГц
Битовая глубина : 16 бит
Метод сжатия : С потерями
Размер потока : 268 Мбайт (19%)
Выравнивание : Разделение по промежуткам
Продолжительность промежутка : 96 мс. (2,40 видеокадра)
Время предзагрузки промежутка : 96 мс.
Язык : Russian
-НЕ ЗАБЫВАЕМ ПРО СПАСИБО!!!
Download / Скачать

Хотите скачать бесплатно? Зарегистрируйтесь на сайте (ссылка на регистрацию). Pirat.ca - самый быстрый торрент трекер в рунете!

Как скачивать  ·   Что такое торрент  ·   Рейтинг и ограничения



Последний раз редактировалось: PycTABEJIi (2012-12-02 12:41), всего редактировалось 2 раз(а)

Пост 02-Дек-2012 12:44 (спустя 10 часов)

Топик был перенесен из форума Наше кино (Трюм) в форум Российские фильмы

ara1205
 

Oksika

Флибустьер

Пост 04-Дек-2012 21:40 (спустя 2 дня 19 часов)

[Q] 

Интересный фильм!
[Профиль]  [ЛС] 
Показать сообщения:    
Ответить на тему

Текущее время: Сегодня 14:32

Часовой пояс: GMT + 4



Вы не можете начинать темы
Вы не можете отвечать на сообщения
Вы не можете редактировать свои сообщения
Вы не можете удалять свои сообщения
Вы не можете голосовать в опросах
Вы не можете прикреплять файлы к сообщениям
Вы не можете скачивать файлы

▼ Вниз