ML
     
  Уважаемый Гость!
Вы можете поддержать проект и зарегистрироваться у наших партнеров - онлайн-стратегия MyLands. При регистрации в игре Вы получите код, который сможете активировать после регистрации на pirat.ca и получить 1000 дублонов.

Ваш код:
062e2babcc491faeb40d496cf9a498ac3df6cdd0
 
     

Продаётся кошка (Иван Криворучко (мл.)) [2012 г., мелодрама, SATRip]

Ответить на тему
 
Автор
Сообщение

Пост 02-Дек-2012 12:16

[Q] 

UA4HQW

Флибустьер

-Продаётся кошка-- Производство: Россия, Продюсерская компания "Медиапрофсоюз"
Режиссер: Иван Криворучко (мл.)
Жанр: мелодрама
Год выпуска: 2012 г.
Продолжительность: 01:44:42
Российская премьера: 1 декабря 2012
В ролях: Виктория Полторак, Андрей Биланов, Аня Зайцева (III), Андрей Карако, Денис Дудинский, Светлана Никифорова, Евгений Ивкович, Олег Коц, Илья Финевич, Василий Бойдак, Андрей Голубев-Описание: Катерина умна и амбициозна. Она всегда знает, чего хочет, и весь смысл жизни видит только в работе. Однажды домой к Кате приходит детдомовская воспитанница Алина. «Это у вас продается кошка?» - спрашивает девочка. «Нет у нас никаких кошек», - недоумевает Катя. На самом деле, Алина хитрит. Она уверена что бизнес-леди – ее мама. Катерина, объясняет, что прошлые хозяева квартиры давно тут не живут, но сирота не отступает. Пытаясь избавиться от неожиданной подопечной, Катя берется разыскать ее настоящих родителей, но со временем понимает, что привязалась к девочке, и уже не может с нею расстаться. Эта пронзительная и светлая история будет интересна как взрослой аудитории, так и подросткам.-Сэмпл КиноПоиск
Качество видео: SATRip
Формат видео: AVI
Видео кодек: XviD
Аудио кодек: MP3
Видео: 640x368 (1.74:1), 25 fps, XviD build 64 ~800 kbps avg, 0.14 bit/pixel
Аудио: 48 kHz, MPEG Layer 3, 2 ch, ~128.00 kbps avg
Общее
Полное имя : Prodaetsya.koshka.700.2012.SATRip.avi
Формат : AVI
Формат/Информация : Audio Video Interleave
Размер файла : 701 Мбайт
Продолжительность : 1 ч. 44 м.
Общий поток : 936 Кбит/сек
Программа кодирования : VirtualDubMod 1.5.4.1 (build 2178/release)
Библиотека кодирования : VirtualDubMod build 2178/release
Видео
Идентификатор : 0
Формат : MPEG-4 Visual
Профиль формата : Advanced [email protected]
Параметр BVOP формата : 1
Параметр QPel формата : Нет
Параметр GMC формата : Без точки перехода
Параметр матрицы формата : Выборочная
Идентификатор кодека : XVID
Идентификатор кодека/Подсказка : XviD
Продолжительность : 1 ч. 44 м.
Битрейт : 800 Кбит/сек
Ширина : 640 пикс.
Высота : 368 пикс.
Соотношение сторон : 16:9
Частота кадров : 25,000 кадр/сек
Цветовое пространство : YUV
Подвыборка цветности : 4:2:0
Битовая глубина : 8 бит
Тип развёртки : Прогрессивная
Метод сжатия : С потерями
Бит/(Пиксели*Кадры) : 0.136
Размер потока : 599 Мбайт (86%)
Библиотека кодирования : XviD 64
Аудио
Идентификатор : 1
Формат : MPEG Audio
Версия формата : Version 1
Профиль формата : Layer 3
Режим : Joint stereo
Расширение режима : MS Stereo
Идентификатор кодека : 55
Идентификатор кодека/Подсказка : MP3
Продолжительность : 1 ч. 44 м.
Вид битрейта : Постоянный
Битрейт : 128 Кбит/сек
Каналы : 2 канала
Частота : 48,0 КГц
Метод сжатия : С потерями
Размер потока : 95,9 Мбайт (14%)
Выравнивание : Соединение по промежуткам
Продолжительность промежутка : 80 мс. (2,00 видеокадра)
Время предзагрузки промежутка : 504 ms
Библиотека кодирования : LAME3.98r
Настройки программы : -m j -V 4 -q 2 -lowpass 17 -b 128
Download / Скачать

Хотите скачать бесплатно? Зарегистрируйтесь на сайте (ссылка на регистрацию). Pirat.ca - самый быстрый торрент трекер в рунете!

Как скачивать  ·   Что такое торрент  ·   Рейтинг и ограничения

Пост 02-Дек-2012 16:00 (спустя 3 часа)

Топик был перенесен из форума Наше кино (Трюм) в форум Новинки (HD|DVD|BD|TV|SAT|PDTV| - Rips)

erchine
 

Oksika

Флибустьер

Пост 06-Дек-2012 17:22 (спустя 4 дня)

[Q] 

Скорость очень низкая, но буду качать. Фильм интересный.
[Профиль]  [ЛС] 

Пост 05-Янв-2013 13:31 (спустя 29 дней)

Топик был перенесен из форума Новинки (HD|DVD|BD|TV|SAT|PDTV| - Rips) в форум Российские фильмы

ara1205
 
Показать сообщения:    
Ответить на тему

Текущее время: Сегодня 17:37

Часовой пояс: GMT + 4



Вы не можете начинать темы
Вы не можете отвечать на сообщения
Вы не можете редактировать свои сообщения
Вы не можете удалять свои сообщения
Вы не можете голосовать в опросах
Вы не можете прикреплять файлы к сообщениям
Вы не можете скачивать файлы

▼ Вниз