ML
     
  Уважаемый Гость!
Вы можете поддержать проект и зарегистрироваться у наших партнеров - онлайн-стратегия MyLands. При регистрации в игре Вы получите код, который сможете активировать после регистрации на pirat.ca и получить 1000 дублонов.

Ваш код:
bc31d8aef74c92e19ad67e34a8fa63c3b9b812fb
 
     

Просто Джексон (Леонид Пляскин) [2012 г., детектив, SATRip]

Ответить на тему
 
Автор
Сообщение

Пост 02-Дек-2012 12:43

[Q] 

UA4HQW

Флибустьер

-Просто Джексон
-- Производство: Россия
Режиссер: Леонид Пляскин
Жанр: детектив
Год выпуска: 2012 г.
Продолжительность: 01:30:07
В ролях: Дмитрий Быковский-Ромашов, Андрей Горбачев, Екатерина Суворова, Дмитрий Орлов (III), Роман Бокашевский, Андрей Гульнев, Елизавета Прилепская, Сергей Великанов, Андрей Мокеев, Леонид Луценко, Илья Катунцев, Евгений Катаев-Описание: Расследуя дело о пропаже сына бывшего начальника угрозыска Дегтярёва, Джексон задерживает возможного подозреваемого - владельца машины, в который силой увезли похищенного юношу. В салоне автомобиля предполагаемого похитителя Джексон находит сумку, доверху набитую деньгами в банковской упаковке, украденными во время последнего из серии ограблений и убийств инкассаторов. Задержанный Ивченко отказывается общаться с Хмелёвой, ведущей его дело, но Джексон знает, что этот бандит остаётся единственной ниточкой, связывающей оба дела - похищение Дегтярёва и разбойные нападения на банковские броневики. Версия Джексона подтверждается самым печальным образом: подельники Ивченко расправляются с девушкой майора Валентиной. Вооружившись до зубов купленным на чёрном рынке оружием, Джексон начинает свою собственную борьбу с похитителями, которую он сам называет "война миров".-Сэмпл КиноПоиск
Качество видео: SATRip
Формат видео: AVI
Видео кодек: XviD
Аудио кодек: MP3
Видео: 720x384 (1.88:1), 25 fps, XviD build 50 ~1948 kbps avg, 0.28 bit/pixel
Аудио: 48 kHz, MPEG Layer 3, 2 ch, ~192.00 kbps avg
Общее
Полное имя : Prosto.Djekson.avi
Формат : AVI
Формат/Информация : Audio Video Interleave
Размер файла : 1,35 Гбайт
Продолжительность : 1 ч. 30 м.
Общий поток : 2151 Кбит/сек
Программа кодирования : VirtualDubModRus 1.5.10.2 (build 2540/release)
Библиотека кодирования : VirtualDubMod build 2540/release
Видео
Идентификатор : 0
Формат : MPEG-4 Visual
Профиль формата : Advanced [email protected]
Параметр BVOP формата : 1
Параметр QPel формата : Нет
Параметр GMC формата : Без точки перехода
Параметр матрицы формата : Default (H.263)
Идентификатор кодека : XVID
Идентификатор кодека/Подсказка : XviD
Продолжительность : 1 ч. 30 м.
Битрейт : 1949 Кбит/сек
Ширина : 720 пикс.
Высота : 384 пикс.
Соотношение сторон : 1,875
Частота кадров : 25,000 кадр/сек
Цветовое пространство : YUV
Подвыборка цветности : 4:2:0
Битовая глубина : 8 бит
Тип развёртки : Прогрессивная
Метод сжатия : С потерями
Бит/(Пиксели*Кадры) : 0.282
Размер потока : 1,23 Гбайт (91%)
Библиотека кодирования : XviD 1.2.1 (UTC 2008-12-04)
Аудио
Идентификатор : 1
Формат : MPEG Audio
Версия формата : Version 1
Профиль формата : Layer 3
Идентификатор кодека : 55
Идентификатор кодека/Подсказка : MP3
Продолжительность : 1 ч. 30 м.
Вид битрейта : Постоянный
Битрейт : 192 Кбит/сек
Каналы : 2 канала
Частота : 48,0 КГц
Метод сжатия : С потерями
Размер потока : 124 Мбайт (9%)
Выравнивание : Соединение по промежуткам
Продолжительность промежутка : 40 мс. (1,00 видеокадр)
Время предзагрузки промежутка : 504 ms
Библиотека кодирования : LAME3.98r
Настройки программы : -m s -V 4 -q 2 -lowpass 18.6 -b 192
Download / Скачать

Хотите скачать бесплатно? Зарегистрируйтесь на сайте (ссылка на регистрацию). Pirat.ca - самый быстрый торрент трекер в рунете!

Как скачивать  ·   Что такое торрент  ·   Рейтинг и ограничения

Пост 02-Дек-2012 15:43 (спустя 3 часа)

Топик был перенесен из форума Наше кино (Трюм) в форум Новинки (HD|DVD|BD|TV|SAT|PDTV| - Rips)

erchine
 

viktor174

Корсар

Пост 02-Янв-2013 10:55 (спустя 30 дней)

[Q] 

Фильм снят с юмором , ДЖЕКСОН как всегда отжигает . Смотреть ВСЕМ .
[Профиль]  [ЛС] 

budilnik74

Морской Волк

Пост 02-Янв-2013 18:47 (спустя 7 часов)

[Q] 

[Профиль]  [ЛС] 

miner804

Морской Волк

Пост 02-Янв-2013 18:51 (спустя 4 минуты)

[Q] 

Пятерка!!!!
[Профиль]  [ЛС] 

Дмитров

Морской Волк

Пост 30-Май-2013 00:35 (спустя 4 месяца 27 дней)

[Q] 

Фильм отличный, так же как и сериал.Жаль, что таких ментов уже нет!
[Профиль]  [ЛС] 

tabletka

Штурман

Пост 07-Окт-2013 12:53 (спустя 4 месяца 8 дней)

[Q] 

Раздающему респект! Спасибочки!
[Профиль]  [ЛС] 

joint_

Штурман

Пост 10-Окт-2013 20:02 (спустя 3 дня)

[Q] 

Парни а кто исполняет трек в конце фильма.
[Профиль]  [ЛС] 

Кротанг

Юнга

Пост 13-Янв-2014 22:38 (спустя 3 месяца 3 дня)

[Q] 

С удовольствием. посмотрел!!! Всем качать!!!
[Профиль]  [ЛС] 

Scriber

Шкипер

Пост 05-Фев-2014 14:46 (спустя 22 дня)

[Q] 

рембомент этот джексон :)
[Профиль]  [ЛС] 

Элфрей

Штурман

Пост 17-Ноя-2014 21:33 (спустя 9 месяцев 12 дней)

[Q] 

Интересно посмотреть на не пьющего Джексона
[Профиль]  [ЛС] 
Показать сообщения:    
Ответить на тему

Текущее время: Сегодня 11:57

Часовой пояс: GMT + 4



Вы не можете начинать темы
Вы не можете отвечать на сообщения
Вы не можете редактировать свои сообщения
Вы не можете удалять свои сообщения
Вы не можете голосовать в опросах
Вы не можете прикреплять файлы к сообщениям
Вы не можете скачивать файлы

▼ Вниз