ML
     
  Уважаемый Гость!
Вы можете поддержать проект и зарегистрироваться у наших партнеров - онлайн-стратегия MyLands. При регистрации в игре Вы получите код, который сможете активировать после регистрации на pirat.ca и получить 1000 дублонов.

Ваш код:
74c28610d77aaac24ba694c4128f3b9b46b04220
 
     

Упражнения в прекрасном (Виктор Шамиров) [2011 г., комедия, DVDRip]

Ответить на тему
 
Автор
Сообщение

Пост 15-Дек-2011 22:01

[Q] 

zyyx

--Упражнения в прекрасном-- Год выпуска: 2011
Мировая премьера: 1 декабря 2011
Российская премьера: 24 ноября 2011, «Парадиз»
Дата выхода DVD: 15 декабря 2011, «Новый Диск»
Страна: Россия
Жанр: комедия
Продолжительность: 01:33:18
Перевод: Не требуется [Лицензия]
Режиссер: Виктор Шамиров
В ролях: Виктор Шамиров, Гоша Куценко,, Константин Юшкевич, Ксения Радченко, Павел Савинков
Описание: Пережив безумные юношеские надежды люди обычно соглашаются на роль участника массовки. Но некоторые всю жизнь чувствуют в себе силушку и предназначение свыше. И что-то делают, делают, делают. Создают. Или крадут-убивают, но уж в невероятных масштабах.
В этой истории герои не крадут, и не убивают. Они едут, играют спектакль, едут, играют, летят, играют, пьют, ссорятся, едут, мирятся, пьют, любят, ненавидят, живут, живут, играют, живут…
Источник/Качество: DVDRip | Сэмпл
Формат: AVI
Видео кодек: XviD
Аудио кодек: AC3
Видео: 720x384 (1.88:1), 25 fps, XviD build 47, 1643 kbps avg, 0.24 bit/pixel
Аудио: 48 kHz, AC3 Dolby Digital, 3/2 (L,C,R,l,r) + LFE ch, 448 kbps
General
Complete name : D:\pirat.ca\Uprazhnenija.v.prekrasnom.2011.avi
Format : AVI
Format/Info : Audio Video Interleave
File size : 1.37 GiB
Duration : 1h 33mn
Overall bit rate : 2 101 Kbps
Movie name : Uprazhnenija.v.prekrasnom.2011.O.DVDRip
Writing application : VirtualDubMod 1.5.10.2 (build 2540/release)
Video
ID : 0
Format : MPEG-4 Visual
Format profile : Advanced [email protected]
Format settings, BVOP : 2
Format settings, QPel : No
Format settings, GMC : No warppoints
Format settings, Matrix : Custom
Codec ID : XVID
Codec ID/Hint : XviD
Duration : 1h 33mn
Bit rate : 1 643 Kbps
Width : 720 pixels
Height : 384 pixels
Display aspect ratio : 1.875
Frame rate : 25.000 fps
Color space : YUV
Chroma subsampling : 4:2:0
Bit depth : 8 bits
Scan type : Progressive
Compression mode : Lossy
Bits/(Pixel*Frame) : 0.238
Stream size : 1.07 GiB (78%)
Writing library : XviD 1.2.0.dev47 (UTC 2006-11-01)
Audio
ID : 1
Format : AC-3
Format/Info : Audio Coding 3
Mode extension : CM (complete main)
Codec ID : 2000
Duration : 1h 33mn
Bit rate mode : Constant
Bit rate : 448 Kbps
Channel(s) : 6 channels
Channel positions : Front: L C R, Side: L R, LFE
Sampling rate : 48.0 KHz
Bit depth : 16 bits
Compression mode : Lossy
Stream size : 299 MiB (21%)
Alignment : Split accross interleaves
Interleave, duration : 40 ms (1.00 video frame)
Interleave, preload duration : 500 ms


Download / Скачать

Хотите скачать бесплатно? Зарегистрируйтесь на сайте (ссылка на регистрацию). Pirat.ca - самый быстрый торрент трекер в рунете!

Как скачивать  ·   Что такое торрент  ·   Рейтинг и ограничения



Последний раз редактировалось: zyyx (2011-12-15 22:35), всего редактировалось 1 раз

Пост 15-Дек-2011 22:05 (спустя 3 минуты)

Топик был перенесен из форума Наше Кино в форум Новинки (HD|DVD|BD|TV|SAT|PDTV| - Rips)

Skinwalker
 

markuzek

Шкипер

Пост 18-Дек-2011 22:38 (спустя 3 дня)

[Q] 

Это конечно не комедия, а традикомедия. Посмотреть можно.
[Профиль]  [ЛС] 

Solly

Шкипер

78

Пост 19-Дек-2011 06:40 (спустя 8 часов)

[Q] 

Отличное кино, море позитива, в конце правда взгрустнулось
[Профиль]  [ЛС] 

Pesok

Гроза морей

Пост 21-Дек-2011 18:03 (спустя 2 дня 11 часов)

[Q] 

спасибо, то что надо

_________________
[Профиль]  [ЛС] 

Sergi4

Гроза морей

Пост 17-Янв-2012 23:58 (спустя 27 дней)

[Q] 

Спасибо
[Профиль]  [ЛС] 

NewTor

Гроза морей

Пост 18-Янв-2012 00:41 (спустя 42 минуты)

[Q] 

Интересная драма-комедия;)
[Профиль]  [ЛС] 

dadec39

Корсар

Пост 20-Янв-2012 15:50 (спустя 2 дня 15 часов)

[Q] 

Понравился фильм , но конец какой-то резкий.)
[Профиль]  [ЛС] 

sergokov

Флибустьер

754

Пост 22-Янв-2012 12:30 (спустя 1 день 20 часов)

[Q] 

Нормальный фильм, время не зря потратил.
[Профиль]  [ЛС] 

Valf66

Морской Волк

Пост 28-Янв-2012 22:42 (спустя 6 дней)

[Q] 

Отличный фильм.
[Профиль]  [ЛС] 

lis777

Корсар

Пост 29-Янв-2012 18:39 (спустя 19 часов)

[Q] 

раздающему спасибо,фильм посмотрим заценим
[Профиль]  [ЛС] 

and48

Корсар

169

Пост 01-Фев-2012 10:20 (спустя 2 дня 15 часов)

[Q] 

[Профиль]  [ЛС] 

aiden57

Гроза морей

3259

Пост 01-Фев-2012 11:36 (спустя 1 час 15 минут)

[Q] 


_________________

Мои раздачи
[Профиль]  [ЛС] 

Леоперд

Лоцман

Пост 05-Мар-2012 21:15 (спустя 1 месяц 4 дня)

[Q] 

Спасибо.Почитал отзывы уже заинтересовало.
[Профиль]  [ЛС] 

voronr

Лоцман

Пост 25-Янв-2013 19:50 (спустя 10 месяцев 19 дней)

[Q] 

Побольше бы таких фильмов.
Жаль в прокате он прошёл совсем незаметно.
О фильме узнал случайно. Порадовал Куценко, хорошо исполнил свою роль.
Фильм приятный и интересный. Посмотрите, не пожалеете!
[Профиль]  [ЛС] 

Scorpion7474

Флибустьер

Пост 19-Май-2014 14:21 (спустя 1 год 3 месяца)

[Q] 

спасибо посмотрим Автору респект!!!
[Профиль]  [ЛС] 

Murdoch

Штурман

Пост 17-Июн-2014 18:41 (спустя 29 дней)

[Q] 

Спасибо за раздачу. Хороший фильм, что в последнее время редкость.
[Профиль]  [ЛС] 

Scorpion7474

Флибустьер

Пост 27-Июн-2014 23:26 (спустя 10 дней)

[Q] 

Лови бочку
[Профиль]  [ЛС] 

KoNiaL_KCC

Гроза морей

Пост 03-Июл-2014 12:30 (спустя 5 дней)

[Q] 

На любителя сюжет не очень
[Профиль]  [ЛС] 

Hippopotam

Корсар

Пост 07-Июл-2014 15:19 (спустя 4 дня)

[Q] 

Удивительно приятное кино. Лови бочку
[Профиль]  [ЛС] 
Показать сообщения:    
Ответить на тему

Текущее время: Сегодня 09:57

Часовой пояс: GMT + 4



Вы не можете начинать темы
Вы не можете отвечать на сообщения
Вы не можете редактировать свои сообщения
Вы не можете удалять свои сообщения
Вы не можете голосовать в опросах
Вы не можете прикреплять файлы к сообщениям
Вы не можете скачивать файлы

▼ Вниз