ML
     
  Уважаемый Гость!
Вы можете поддержать проект и зарегистрироваться у наших партнеров - онлайн-стратегия MyLands. При регистрации в игре Вы получите код, который сможете активировать после регистрации на pirat.ca и получить 1000 дублонов.

Ваш код:
21acd5966619d49ad0b90c3305467b4646cc11a8
 
     

Про бизнесмена Фому (Валерий Чиков) [1993 г., драма, комедия, DVDRip][internal release]

Ответить на тему
 
Автор
Сообщение

Пост 03-Дек-2012 13:59

[Q] 

megamastor

-Про бизнесмена Фому-- Производство: ТО Экран
Режиссер: Валерий Чиков
Жанр: драма, комедия
Год выпуска: 1993 г.
Продолжительность: 01:17:16
Российская премьера: 1993
В ролях: Сергей Рубеко, Михаил Евдокимов, Валерий Миронов, Владимир Кашпур (Лука Совков), Андрей Николаев (рэкетир), Николай Карнаухов, Виталий Тараничев, Александр Леньков (секретарь райкома), Игорь Ясулович (постоянный клиент медвытрезвителя), Михаил Светин (Зозулин), Александр Толмачев (сержант Дудариков), Игорь Штернберг-Описание: Сельский механизатор Фома, увидев в городе платный туалет, загорелся идеей разбогатеть в своей деревне на таком же бизнесе. Построил роскошное заведение, но деревенским коммунистам и местным рэкетирам эта капиталистическая идея не понравилась...-Сэмпл КиноПоиск
Качество видео: DVDRip
Формат видео: AVI
Видео кодек: XviD
Аудио кодек: AC3
Видео: 720х544, 2008 Кбит/сек, 25,000 кадров/сек
Аудио: 192 Кбит/сек, 2 канала, 48,0 КГц
Cубтитры: отсутствуют
Формат/Информация : Audio Video Interleave
Размер файла : 1,19 Гбайт
Продолжительность : 1 ч. 17 м.
Общий поток : 2210 Кбит/сек
Программа кодирования : VirtualDubMod 1.5.10.3 | www.virtualdub-fr.org || (build 2550/release)
Библиотека кодирования : VirtualDubMod build 2550/release
Видео
Идентификатор : 0
Формат : MPEG-4 Visual
Профиль формата : Advanced [email protected]
Параметр BVOP формата : 2
Параметр QPel формата : Нет
Параметр GMC формата : Без точки перехода
Параметр матрицы формата : Default (H.263)
Идентификатор кодека : XVID
Идентификатор кодека/Подсказка : XviD
Продолжительность : 1 ч. 17 м.
Битрейт : 2008 Кбит/сек
Ширина : 720 пикселей
Высота : 544 пикселя
Соотношение сторон : 4:3
Частота кадров : 25,000 кадров/сек
Цветовое пространство : YUV
Субдискретизация насыщенности : 4:2:0
Битовая глубина : 8 бит
Тип развёртки : Прогрессивная
Метод сжатия : С потерями
Бит/(Пиксели*Кадры) : 0.205
Размер потока : 1,08 Гбайт (91%)
Библиотека кодирования : XviD 1.2.1 (UTC 2008-12-04)
Аудио
Идентификатор : 1
Формат : AC-3
Формат/Информация : Audio Coding 3
Расширение режима : CM (complete main)
Параметр Endianness формата : Big
Идентификатор кодека : 2000
Продолжительность : 1 ч. 17 м.
Вид битрейта : Постоянный
Битрейт : 192 Кбит/сек
Каналы : 2 канала
Расположение каналов : Front: L R
Частота : 48,0 КГц
Битовая глубина : 16 бит
Метод сжатия : С потерями
Размер потока : 106 Мбайт (9%)
Выравнивание : Разделение по промежуткам
Продолжительность промежутка : 40 мс. (1,00 видеокадр)
Время предзагрузки промежутка : 500 мс.
Download / Скачать

Хотите скачать бесплатно? Зарегистрируйтесь на сайте (ссылка на регистрацию). Pirat.ca - самый быстрый торрент трекер в рунете!

Как скачивать  ·   Что такое торрент  ·   Рейтинг и ограничения

Пост 03-Дек-2012 17:23 (спустя 3 часа)

Топик был перенесен из форума Наше кино (Трюм) в форум Российские фильмы

erchine
 

jekich

Корсар

1761

Пост 03-Дек-2012 21:44 (спустя 7 часов)

[Q] 

это здесь было "суй палец" он и сунул
там где на трактор прицеп цепляли?

_________________
[Профиль]  [ЛС] 

megamastor ®

2827

Пост 04-Дек-2012 10:24 (спустя 12 часов)

[Q] 

jekich, Да здесь. И еще фраза - а ты как тут оказался - да я из заднего прохода bj
[Профиль]  [ЛС] 

alexsoid

Шкипер

Пост 05-Дек-2012 17:12 (спустя 1 день 6 часов)

[Q] 

[Профиль]  [ЛС] 
Показать сообщения:    
Ответить на тему

Текущее время: Сегодня 23:16

Часовой пояс: GMT + 4



Вы не можете начинать темы
Вы не можете отвечать на сообщения
Вы не можете редактировать свои сообщения
Вы не можете удалять свои сообщения
Вы не можете голосовать в опросах
Вы не можете прикреплять файлы к сообщениям
Вы не можете скачивать файлы

▼ Вниз