ML
     
  Уважаемый Гость!
Вы можете поддержать проект и зарегистрироваться у наших партнеров - онлайн-стратегия MyLands. При регистрации в игре Вы получите код, который сможете активировать после регистрации на pirat.ca и получить 1000 дублонов.

Ваш код:
156f85568ae63e45e07ac461c96a83ba1a876b0a
 
     

Конвой (Алексей Мизгирёв) [2012 г., драма, DVDRip]

Ответить на тему
 
Автор
Сообщение

Пост 03-Дек-2012 19:12

[Q] 

Су-34

Гроза морей

-Конвой-- -Производство: Россия, Мастерская Павла Лунгина
Режиссер: Алексей Мизгирёв
Жанр: драма
Год выпуска: 2012 г.
Продолжительность: 01:25:16
Российская премьера: 29 ноября 2012
В ролях: Олег Васильков, Азамат Нигманов, Дмитрий Куличков, Евгений Антропов, Руслана Доронина, Федор Леонов-Описание: Армейский капитан конвоирует в часть солдата-дезертира. Герои проводят сутки в Москве, в течение которых сталкиваются с реалиями жизни в современном мегаполисе: иногда комичными, иногда трагичными. Возникшая дружба между офицером и солдатом-дезертиром меняет отношение главного героя к жизни. Циничный капитан заново обретает смысл жизни и веру в человека.-Сэмпл КиноПоиск
Качество видео: DVDRip
Формат видео: AVI
Видео кодек: XviD
Аудио кодек: AC3
Видео: 720x384 (1.88:1), 25 fps, XviD build 50 ~1996 kbps avg, 0.29 bit/pixel
Аудио: 48 kHz, AC3 Dolby Digital, 3/2 (L,C,R,l,r) + LFE ch, ~448.00 kbps avg
Cубтитры: отсутствуют
Кинотавр, 2012 год
Номинации (1):
Главный приз
General
Complete name : D:\Torrents\Konvoj.2012.O.DVDRip.avi
Format : AVI
Format/Info : Audio Video Interleave
File size : 1.37 GiB
Duration : 1h 19mn
Overall bit rate : 2 454 Kbps
Writing application : VirtualDubMod 1.5.10.3 | www.virtualdub-fr.org || (build 2550/release)
Original source form/Name : Movie
Video #0
ID : 0
Format : MPEG-4 Visual
Format profile : [email protected]
Format settings, BVOP : Yes
Format settings, QPel : No
Format settings, GMC : No warppoints
Format settings, Matrix : Custom
Codec ID : XVID
Codec ID/Hint : XviD
Duration : 1h 19mn
Bit rate : 1 996 Kbps
Width : 720 pixels
Height : 384 pixels
Display aspect ratio : 1.875
Frame rate : 25.000 fps
Resolution : 24 bits
Colorimetry : 4:2:0
Scan type : Progressive
Bits/(Pixel*Frame) : 0.289
Stream size : 1.11 GiB (81%)
Writing library : XviD 1.2.1 (UTC 2008-12-04)
Audio #1
ID : 1
Format : AC-3
Format/Info : Audio Coding 3
Codec ID : 2000
Duration : 1h 19mn
Bit rate mode : Constant
Bit rate : 448 Kbps
Channel(s) : 6 channels
Channel positions : Front: L C R, Surround: L R, LFE
Sampling rate : 48.0 KHz
Video delay : 1s 550ms
Stream size : 256 MiB (18%)
Alignment : Split accross interleaves
Interleave, duration : 40 ms (1.00 video frame)
Interleave, preload duration : 500 ms
Download / Скачать

Хотите скачать бесплатно? Зарегистрируйтесь на сайте (ссылка на регистрацию). Pirat.ca - самый быстрый торрент трекер в рунете!

Как скачивать  ·   Что такое торрент  ·   Рейтинг и ограничения



Последний раз редактировалось: Су-34 (2012-12-04 20:55), всего редактировалось 2 раз(а)

Пост 04-Дек-2012 22:48 (спустя 1 день 3 часа)

Топик был перенесен из форума Наше кино (Трюм) в форум Новинки (HD|DVD|BD|TV|SAT|PDTV| - Rips)

erchine
 

kolipeq843

Морской Волк

Пост 04-Дек-2012 23:10 (спустя 1 день 3 часа)

[Q] 

они в конце поженятся?
[Профиль]  [ЛС] 

genkasper

4242

Пост 04-Дек-2012 23:51 (спустя 40 минут)

[Q] 

бочка в трюме

_________________

обо всех исправлениях в темах пишите в ЛС
[Профиль]  [ЛС] 

Ambeg

Корсар

Пост 05-Дек-2012 01:04 (спустя 1 час 13 минут)

[Q] 

Какой бред какой тюремный жаргон мне не понравился!
[Профиль]  [ЛС] 

Gvozdochet

Корсар

Пост 05-Дек-2012 03:34 (спустя 2 часа 30 минут)

[Q] 

[Профиль]  [ЛС] 

Codename72

Лоцман

Пост 05-Дек-2012 11:34 (спустя 7 часов)

[Q] 

Раздающие, вы где?
[Профиль]  [ЛС] 

dp

Корсар

Пост 07-Дек-2012 09:30 (спустя 1 день 21 час)

[Q] 

277523Раздающие, вы где?
не стоит оно этого :)
Так и не понел что автор фильма хотел до нас донести,походу то что в армии одни дебилы

_________________
Мог стать отличным пианистом, а стал поскудным программистом
[Профиль]  [ЛС] 

ильдорадо

Шкипер

Пост 07-Дек-2012 21:08 (спустя 11 часов)

[Q] 

[Профиль]  [ЛС] 

glot.gr

Корсар

Пост 08-Дек-2012 03:27 (спустя 6 часов)

[Q] 

Не годиться(

_________________
[Профиль]  [ЛС] 

anonymoys

Гроза морей

901

Пост 08-Дек-2012 09:10 (спустя 5 часов)

[Q] 

[Профиль]  [ЛС] 

Су-34 ®

Гроза морей

10386

Пост 09-Дек-2012 14:36 (спустя 1 день 5 часов)

[Q] 

Вообще-то муть какая то, непонятно о чем фильм??
[Профиль]  [ЛС] 

wagon

Морской Волк

Пост 10-Дек-2012 21:40 (спустя 1 день 7 часов)

[Q] 

[Профиль]  [ЛС] 

tyulen29

Штурман

Пост 11-Дек-2012 17:30 (спустя 19 часов)

[Q] 

[Профиль]  [ЛС] 

Пост 05-Янв-2013 13:48 (спустя 24 дня)

Топик был перенесен из форума Новинки (HD|DVD|BD|TV|SAT|PDTV| - Rips) в форум Российские фильмы

ara1205
 

colonel96

Морской Волк

Пост 05-Янв-2013 17:05 (спустя 24 дня)

[Q] 

Муть полная
[Профиль]  [ЛС] 
Показать сообщения:    
Ответить на тему

Текущее время: Сегодня 22:01

Часовой пояс: GMT + 4



Вы не можете начинать темы
Вы не можете отвечать на сообщения
Вы не можете редактировать свои сообщения
Вы не можете удалять свои сообщения
Вы не можете голосовать в опросах
Вы не можете прикреплять файлы к сообщениям
Вы не можете скачивать файлы

▼ Вниз